<?xml version="1.0" standalone="no"?>
<!DOCTYPE svg PUBLIC "-//W3C//DTD SVG 1.1//EN" "http://www.w3.org/Graphics/SVG/1.1/DTD/svg11.dtd" >
<svg>
<metadata>
Created by FontForge 20120731 at Wed Apr  1 09:52:48 2020
 By fw_worker
Typeface (c) Irfont.ir, 2014. All Rights Reserved
</metadata>
<defs>
<font id="BYekan+" horiz-adv-x="1" >
  <font-face 
    font-family="B Yekan+"
    font-weight="400"
    font-stretch="normal"
    units-per-em="2048"
    panose-1="2 0 5 3 3 0 0 2 0 4"
    ascent="1638"
    descent="-410"
    x-height="1072"
    cap-height="1469"
    bbox="-379 -1497 2905 2254"
    underline-thickness="60"
    underline-position="-540"
    unicode-range="U+000D-FEFC"
  />
<missing-glyph horiz-adv-x="1122" 
d="M624 299q0 -30 -22 -52.5t-54 -22.5q-30 0 -51.5 22.5t-21.5 52.5q0 32 21.5 53.5t54.5 21.5q30 0 51.5 -21.5t21.5 -53.5zM732 780q0 -43 -23.5 -70t-60.5 -27q-32 0 -51 18.5t-19 47.5q0 26 15.5 43.5t29.5 28.5q8 6 14 11.5t6 10.5q0 20 -19.5 32t-49.5 12
q-38 0 -62 -21t-24 -53q0 -13 6.5 -32t15.5 -38.5t19 -38t17 -32.5q5 -10 8.5 -16t4.5 -8q11 -29 17.5 -64.5t6.5 -70.5q0 -21 -1.5 -42.5t-3.5 -46.5h-39v18l4 30q0 33 -45 72q-73 65 -82 76q-45 53 -45 120q0 41 15 75.5t40.5 60t60 39.5t73.5 14q35 0 66.5 -10.5t55 -30
t37 -47t13.5 -61.5zM132 31h860v1091h-860v-1091zM100 0v1154h922v-1154h-922z" />
    <glyph glyph-name="fi" unicode="fi" horiz-adv-x="1024" 
d="M707 1263v206h181v-206h-181zM707 1067h181v-1067h-181v1067zM215 1398q63 92 244 92q18 0 36 -1t41 -3v-166q-28 2 -40.5 2.5t-24.5 0.5q-80 0 -97 -42q-4 -10 -6.5 -30.5t-4.5 -49t-3.5 -63t-1.5 -71.5h178v-144h-180v-923h-180v923h-148v144h148v166q2 57 12 98t27 67
z" />
    <glyph glyph-name="fl" unicode="fl" horiz-adv-x="1024" 
d="M884 0h-181v1469h181v-1469zM356 0h-180v923h-148v144h148v188q0 60 19 104t54.5 73.5t85.5 43.5t112 14q25 0 44.5 -1.5t44.5 -5.5v-163q-28 2 -40.5 2.5t-24.5 0.5q-74 0 -100 -44q-15 -25 -15 -81v-131h180v-144h-180v-923z" />
    <glyph glyph-name="uni06BE" unicode="&#xfeeb;&#x200d;" horiz-adv-x="1747" 
d="M1033 537q0 62 -45 99q-44 38 -105 38q-44 0 -76 -38q-13 -17 -20 -39.5t-7 -47.5q0 -57 35.5 -99t103.5 -70q54 26 84 66t30 91zM1384 352q0 103 -219 326q40 -58 40 -153q0 -168 -106 -226q95 -55 170 -55q115 0 115 108zM1575 364q0 -57 -23.5 -111t-65.5 -102
q-45 -47 -96.5 -71.5t-109.5 -24.5q-72 0 -164 34.5t-202 100.5q-57 -28 -121.5 -43.5t-135.5 -16.5q-49 -1 -97.5 -2t-97.5 -2l-462 -1v2l706 178q-96 129 -96 244q0 127 81 209q82 82 209 82q50 0 95 -16.5t90 -52.5q-23 23 -45 46t-45 46l135 123q445 -423 445 -622z" />
    <glyph glyph-name="uniFBAB" unicode="&#xfbad;&#x200d;" horiz-adv-x="1571" arabic-form="final" 
d="M950 537q0 62 -45 99q-44 38 -104 38q-48 0 -75 -38q-30 -34 -30 -87q0 -55 37 -98t103 -71q54 26 84 66t30 91zM1301 352q0 51 -54.5 132t-162.5 193q20 -29 30.5 -67.5t10.5 -84.5q0 -168 -109 -226q97 -55 170 -55q115 0 115 108zM1491 364q0 -14 -1.5 -29.5
t-3.5 -29.5h115v-179h-224q-39 -34 -84.5 -52.5t-95.5 -18.5q-71 0 -163.5 34.5t-202.5 100.5q-57 -28 -121.5 -44.5t-134.5 -19.5h-575v2l622 176q-47 65 -71 126.5t-24 118.5q0 127 81 209q82 82 209 82q48 0 95.5 -18t90.5 -51q-23 24 -46.5 47.5l-46.5 46.5l248 -51
q333 -250 333 -450z" />
    <glyph glyph-name="uni06C0" unicode="&#x647;&#x654;" horiz-adv-x="853" 
d="M502 441q0 52 -27 80l-144 152q-76 -74 -117 -135t-41 -103q0 -33 14 -61.5t38 -50t55.5 -34t67.5 -12.5q33 0 61 13t49 35.5t32.5 52.5t11.5 63zM681 429q0 -69 -29.5 -128t-78 -102.5t-111.5 -68.5t-130 -25q-73 0 -134 27t-105 73.5t-68.5 110t-24.5 136.5
q0 75 52 165.5t148 188.5q-12 14 -26 28.5t-26 28.5l123 123l330 -338q80 -86 80 -219zM439 1223q0 -33 -9 -62.5t-28 -51t-48 -34.5t-69 -13h-88q-72 0 -105.5 12.5t-33.5 27.5q0 16 38 30t112 14h74q9 0 21.5 4.5t24 12.5t20 20t8.5 27q0 8 -8 13.5t-21 10.5h1
q-4 1 -6.5 1h-3.5h-94v105q0 22 10 43t26.5 37t37 26t41.5 10h84v-82h-82q-19 0 -25.5 -17.5t-8.5 -46.5q38 0 63.5 -4.5t40.5 -15t21.5 -27t6.5 -40.5z" />
    <glyph glyph-name="uniFBA5" unicode="&#xfeea;&#x654;" horiz-adv-x="1280" arabic-form="final" 
d="M798 435q0 64 -33 95l-143 143l-64.5 -64.5t-38.5 -40.5q-51 -68 -51 -133q0 -67 47 -112q47 -44 114 -44q32 0 62.5 12t55.5 34q51 48 51 110zM1310 126q-116 0 -175 32q-11 8 -55 47.5t-125 114.5q-103 -215 -328 -215q-148 0 -244 96t-96 246q0 37 15 80t42 89
t65.5 94t84.5 96q-12 14 -25 28.5t-25 28.5l119 123l538 -567q66 -73 85 -86h-1q40 -21 125 -28v-179zM542 1259l-311 -159l-31 68l90 50q-36 26 -57.5 58.5t-21.5 70.5q0 32 11 60.5t31 50.5q23 25 50 36t59 11q14 0 38.5 -7t59.5 -21l-34 -64q-16 14 -28.5 19t-23.5 5
q-88 0 -88 -90q0 -33 17.5 -51t51.5 -18q50 0 151 55z" />
    <glyph glyph-name="uni06C2" unicode="&#x6c1;&#x654;" horiz-adv-x="853" 
d="M502 441q0 52 -27 80l-144 152q-76 -74 -117 -135t-41 -103q0 -64 51 -112q26 -22 57.5 -34t66.5 -12q65 0 109 47q45 48 45 117zM681 429q0 -66 -28.5 -125t-76.5 -104q-51 -46 -112.5 -70.5t-131.5 -24.5q-147 0 -240 100q-92 101 -92 247q0 75 52 165.5t148 188.5
q-12 14 -26 28.5t-26 28.5l123 123l330 -338q80 -86 80 -219zM439 1223q0 -33 -9 -62.5t-28 -51t-48 -34.5t-69 -13h-88q-72 0 -105.5 12.5t-33.5 27.5q0 16 38 30t112 14h74q9 0 21.5 4.5t24 12.5t20 20t8.5 27q0 8 -8 13.5t-21 10.5h1q-4 1 -6.5 1h-3.5h-94v105
q0 22 10 43t26.5 37t37 26t41.5 10h84v-82h-82q-19 0 -25.5 -17.5t-8.5 -46.5q38 0 63.5 -4.5t40.5 -15t21.5 -27t6.5 -40.5z" />
    <glyph glyph-name="uni06C2.fin" unicode="&#xfba7;&#x654;" horiz-adv-x="765" 
d="M795 126h-29q-106 0 -175 43q-47 29 -146 138q-57 78 -113 78q-93 0 -175 -224q-70 -135 -136 -172h1q-4 -4 -10 -4q-12 0 -12 20q0 61 107 326q121 295 241 294q53 0 105 -58q83 -93 137.5 -148t77.5 -75q21 -14 43.5 -23.5t43.5 -15.5h40v-179zM449 1033
q0 -33 -9 -62.5t-28 -51t-48 -34.5t-69 -13h-88q-72 0 -105.5 12.5t-33.5 27.5q0 16 38 30t112 14h74q9 0 21.5 4.5t24 12.5t20 20t8.5 27q0 8 -8 13.5t-21 10.5h1q-4 1 -6.5 1h-3.5h-94v105q0 22 10 43t26.5 37t37 26t41.5 10h84v-82h-82q-19 0 -25.5 -17.5t-8.5 -46.5
q38 0 63.5 -4.5t40.5 -15t21.5 -27t6.5 -40.5z" />
    <glyph glyph-name="uni06CC_uni0659" unicode="&#x6cc;&#x659;" horiz-adv-x="1247" 
d="M215 894q-4 -2 -12 -2q-12 0 -24 5t-22 13t-16 18t-6 20q0 12 7 21t25 15.5t49 10t79 3.5h75q34 0 81 -0.5t119 -0.5q35 0 50.5 -14t15.5 -32q0 -21 -18.5 -40.5t-49.5 -19.5zM1131 -5q0 -262 -185 -385q-109 -74 -251 -74h-274q-94 0 -168 34t-134 103
q-119 137 -119 322v370h169v-387q0 -57 23 -108t63 -90q42 -32 92.5 -50t107.5 -18h231q50 0 98 17t88 47q42 38 65.5 83.5t23.5 95.5q0 85 -118 113q-17 2 -28.5 3t-17.5 1h-249v308q0 137 89 228q90 91 225 91h218l5 -171h-216q-91 0 -129 -83q-8 -20 -13 -72.5t-7 -124.5
q94 -1 168.5 -8.5t109.5 -20.5q64 -26 98.5 -82.5t34.5 -141.5z" />
    <glyph glyph-name="uni06CC_uni0659.fin" unicode="&#xfbfd;&#x659;" horiz-adv-x="1233" 
d="M216 894q-4 -2 -13 -2q-12 0 -24 5t-22 13t-16 18t-6 20q0 12 7 21t25 15.5t49 10t79 3.5h75q34 0 81 -0.5t119 -0.5q35 0 50.5 -14t15.5 -32q0 -21 -18.5 -40.5t-49.5 -19.5zM1263 126h-168q2 -21 5.5 -43.5t5.5 -43.5q0 -157 -117 -265q-115 -97 -273 -97h-274
q-212 0 -332 152q-110 145 -110 362v317h181v-387q0 -63 23 -113t65 -85q41 -31 95 -48.5t115 -17.5h232q92 0 151 50q66 52 66 144q0 60 -159 73q-17 1 -69.5 1.5t-140.5 0.5l-13 179h717v-179z" />
    <glyph glyph-name="uni06CC_uni0659.ini" unicode="&#xfbfe;&#x659;" horiz-adv-x="773" 
d="M538 -152q0 -98 -116 -98q-125 0 -125 98q0 47 33 79q35 30 79 30q129 0 129 -109zM197 -152q0 -98 -113 -98q-129 0 -129 98q0 24 9 44t24.5 34.5t36.5 22.5t45 8q127 0 127 -109zM72 992q-4 -2 -13 -2q-12 0 -24 5t-22 13t-16 18t-6 20q0 11 7 20t25.5 15.5t49.5 10
t79 3.5h75q34 0 81 -0.5t119 -0.5q35 0 50.5 -13.5t15.5 -31.5q0 -21 -18.5 -40.5t-49.5 -19.5zM606 416q0 -58 -18 -108.5t-52 -90.5q-35 -44 -82 -67.5t-101 -23.5h-383v179h324q37 0 62 7.5t40 24t21.5 42.5t6.5 63v246h182v-272z" />
    <glyph glyph-name="uni06CC_uni0659.med" unicode="&#xfbff;&#x659;" horiz-adv-x="746" 
d="M537 -152q0 -98 -116 -98q-125 0 -125 98q0 47 33 79q35 30 79 30q129 0 129 -109zM196 -152q0 -98 -113 -98q-128 0 -128 98q0 24 9 44t24.5 34.5t36 22.5t44.5 8q127 0 127 -109zM71 992q-4 -2 -13 -2q-12 0 -24 5t-21.5 13t-15.5 18t-6 20q0 11 7 20t25 15.5t49 10
t79 3.5h75q34 0 81 -0.5t119 -0.5q35 0 50.5 -13.5t15.5 -31.5q0 -21 -18.5 -40.5t-49.5 -19.5zM776 126q-108 -1 -165 9q-43 18 -91 62q-83 -71 -167 -71h-383v179h327q38 0 63 7.5t40 24t21.5 42.5t6.5 63v246h180v-246q0 -89 44 -115q26 -22 124 -22v-179z" />
    <glyph glyph-name="afii57448_uni0659" unicode="&#x648;&#x659;" horiz-adv-x="875" 
d="M176 1078q-4 -2 -13 -2q-12 0 -24 5t-22 13t-16 18t-6 20q0 12 7 21t25.5 15.5t49.5 10t79 3.5h75q34 0 81 -0.5t119 -0.5q35 0 50.5 -14t15.5 -32q0 -21 -18.5 -40.5t-49.5 -19.5zM521 489q0 172 -138 172q-84 0 -114 -56q-8 -22 -13 -57t-5 -82q0 -110 86 -142
q23 -9 73.5 -13.5t110.5 -5.5v184zM702 103q0 -90 -34.5 -165.5t-100.5 -136.5q-66 -60 -145 -92t-167 -32h-231l-24 180h226q124 0 207 74q80 71 88 195q-102 2 -187.5 17.5t-133.5 42.5q-66 40 -100 111.5t-34 173.5q0 223 105 314q64 55 217 55q103 0 170.5 -43
t101.5 -127q20 -54 31 -139t11 -200v-228z" />
    <glyph glyph-name="afii57448_uni0659.fin" unicode="&#xfeee;&#x659;" horiz-adv-x="802" 
d="M175 1078q-4 -2 -13 -2q-12 0 -24 5t-22 13t-16 18t-6 20q0 12 7 21t25.5 15.5t49.5 10t79 3.5h75q34 0 81 -0.5t119 -0.5q35 0 50.5 -14t15.5 -32q0 -21 -18.5 -40.5t-49.5 -19.5zM529 477q0 69 -35 125q-44 59 -112 59q-82 0 -112 -56q-9 -22 -14.5 -57t-5.5 -82
q0 -110 91 -142q12 -4 31 -7.5t44 -6t53.5 -4t59.5 -1.5v172zM832 126h-119q-2 -92 -36.5 -176.5t-94.5 -145.5q-65 -61 -148 -94t-180 -33h-228l-26 180h225q124 0 209 74q82 72 90 195q-104 2 -189 17t-136 44q-67 40 -101.5 111t-34.5 173q0 222 107 314q63 54 212 54
q106 0 178.5 -46t108.5 -131q20 -51 31 -145t13 -212h119v-179z" />
    <glyph glyph-name="uniFC5D" unicode="&#x649;&#x670;" horiz-adv-x="1247" arabic-form="isolated" 
d="M418 848h-87v392h87v-392zM1131 136q0 -131 -47 -228t-138 -158q-108 -73 -251 -73h-274q-94 0 -168 34t-134 103q-119 137 -119 322v368h169v-390q0 -115 86 -189q83 -73 200 -73h231q104 0 186 70q89 69 89 172q0 87 -118 116q-33 6 -46 6h-249v305q0 136 89 227
q90 91 225 91h218l5 -168h-216q-93 0 -129 -85q-8 -20 -13 -73.5t-7 -127.5q94 -1 168.5 -8.5t109.5 -19.5q64 -26 98.5 -81.5t34.5 -139.5z" />
    <glyph glyph-name="uniFC90" unicode="&#xfef0;&#x670;" horiz-adv-x="1233" arabic-form="final" 
d="M476 769h-87v392h87v-392zM1263 126h-168q2 -21 5.5 -43.5t5.5 -43.5q0 -157 -117 -265q-115 -97 -273 -97h-274q-212 0 -332 152q-110 145 -110 362v317h181v-387q0 -63 23 -113t65 -85q41 -31 95 -48.5t115 -17.5h232q92 0 151 50q66 52 66 144q0 60 -159 73
q-17 1 -69.5 1.5t-140.5 0.5l-13 179h717v-179z" />
    <glyph glyph-name="uniFEF5" unicode="&#xe80a;&#xe800;" horiz-adv-x="1186" arabic-form="isolated" 
d="M1013 398q0 -127 -76 -200q-76 -72 -206 -72h-165q-350 0 -350 272v870h180v-790q0 -51 8 -87t22 -53q16 -15 51.5 -24t88.5 -9h153q81 0 105 48q7 9 10 40.5t3 84.5v790h176v-870zM214 1409q-75 0 -113 -38q-37 -37 -69 -98l-130 48q61 143 105 176q21 18 40.5 29.5
t41.5 19t49.5 11t64.5 4.5h407v-152h-396z" />
    <glyph glyph-name="uniFEF6" unicode="&#xe80e;&#xe801;" horiz-adv-x="1180" arabic-form="final" 
d="M116 430v838h172v-790q0 -26 2 -48h-174zM617 305q74 0 103 45q13 22 13 128v790h181v-809q0 -38 7.5 -67t26.5 -48.5t51 -29t81 -9.5h30v-179q-154 16 -245 119q-87 -119 -240 -119h-160q-281 0 -336 179h-2h490zM114 1409q-75 0 -113 -38q-37 -37 -69 -98l-130 48
q61 143 105 176q21 18 40.5 29.5t41.5 19t49.5 11t64.5 4.5h407v-152h-396z" />
    <glyph glyph-name="uniFEF7" unicode="&#xe80a;&#xe802;" horiz-adv-x="1086" arabic-form="isolated" 
d="M352 1492l-252 -130l-31 60l71 40q-27 19 -43 46.5t-16 60.5q0 55 37 91q34 37 85 37q14 0 34 -6t47 -17l-26 -56q-28 20 -55 20q-59 0 -59 -72q0 -58 55 -58q24 0 55 12.5t69 35.5zM913 398q0 -127 -76 -200q-76 -72 -206 -72h-165q-350 0 -350 272v870h180v-790
q0 -51 8 -87t22 -53q16 -15 51.5 -24t88.5 -9h153q81 0 105 48q7 9 10 40.5t3 84.5v790h176v-870z" />
    <glyph glyph-name="uniFEF8" unicode="&#xe80e;&#xe803;" horiz-adv-x="1080" arabic-form="final" 
d="M337 1514l-252 -130l-32 60l71 40q-28 18 -43.5 45.5t-15.5 61.5q0 55 37 91q35 37 87 37q13 0 33 -6t46 -17l-26 -57q-28 21 -55 21q-58 0 -58 -73q0 -57 54 -57q25 0 55.5 12t68.5 35zM116 430v838h172v-790q0 -26 2 -48h-174zM617 305q74 0 103 45q13 22 13 128v790
h181v-809q0 -38 7.5 -67t26.5 -48.5t51 -29t81 -9.5h30v-179q-154 16 -245 119q-87 -119 -240 -119h-160q-281 0 -336 179h-2h490z" />
    <glyph glyph-name="uniFEF9" unicode="&#xe80a;&#xe804;" horiz-adv-x="1086" arabic-form="isolated" 
d="M433 -194l-253 -132l-29 60l70 40q-28 20 -44 47.5t-16 60.5q0 26 10 50t27 41t39.5 27.5t47.5 10.5q13 0 32.5 -6.5t47.5 -18.5l-25 -55q-14 10 -28 15.5t-28 5.5q-59 0 -59 -74q0 -57 55 -57q24 0 55 12.5t70 35.5zM913 398q0 -127 -76 -200q-76 -72 -206 -72h-165
q-350 0 -350 272v870h180v-790q0 -51 8 -87t22 -53q16 -15 51.5 -24t88.5 -9h153q81 0 105 48q7 9 10 40.5t3 84.5v790h176v-870z" />
    <glyph glyph-name="uniFEFA" unicode="&#xe80e;&#xe805;" horiz-adv-x="1080" arabic-form="final" 
d="M410 -201l-252 -131l-31 60l72 40q-28 19 -44 46.5t-16 61.5q0 52 37 91q17 17 39 27t47 10q22 0 80 -25l-26 -55q-29 21 -55 21q-58 0 -58 -73q0 -57 54 -57q25 0 56 12t69 34zM116 430v838h172v-790q0 -26 2 -48h-174zM617 305q74 0 103 45q13 22 13 128v790h181v-809
q0 -38 7.5 -67t26.5 -48.5t51 -29t81 -9.5h30v-179q-154 16 -245 119q-87 -119 -240 -119h-160q-281 0 -336 179h-2h490z" />
    <glyph glyph-name="uniFEFB" unicode="&#xe80a;&#xe806;" horiz-adv-x="1086" arabic-form="isolated" 
d="M913 398q0 -127 -76 -200q-76 -72 -206 -72h-165q-350 0 -350 272v870h180v-790q0 -51 8 -87t22 -53q16 -15 51.5 -24t88.5 -9h153q81 0 105 48q7 9 10 40.5t3 84.5v790h176v-870z" />
    <glyph glyph-name="uniFEFC" unicode="&#xe80e;&#xe807;" horiz-adv-x="1080" arabic-form="final" 
d="M116 430v838h172v-790q0 -26 2 -48h-174zM617 305q74 0 103 45q13 22 13 128v790h181v-809q0 -38 7.5 -67t26.5 -48.5t51 -29t81 -9.5h30v-179q-154 16 -245 119q-87 -119 -240 -119h-160q-281 0 -336 179h-2h490z" />
    <glyph glyph-name="afii57451" unicode="&#xfe70;" arabic-form="isolated" 
d="M376 1514l-326 -174l-36 65l328 178zM376 1696l-326 -178l-35 68l328 178z" />
    <glyph glyph-name="afii57452" unicode="&#xfe72;" horiz-adv-x="2" arabic-form="isolated" 
d="M329 1629q0 14 -6.5 26t-17 21t-24 14t-27.5 5q-65 0 -65 -73q0 -69 71 -69q20 0 44 28q25 30 25 48zM391 1629q0 -94 -50 -124l-286 -150l-39 63q26 14 43.5 27t25.5 23q-1 11 -10 15t-26 4q-14 0 -25 -2.5t-23 -12.5l-35 54q35 14 60.5 19.5t40.5 5.5q27 0 46.5 -18.5
t28.5 -53.5q5 3 12.5 8.5t15.5 10.5q4 2 9 5.5t9 6.5q-32 22 -48.5 49t-16.5 62q0 46 24.5 78.5t67.5 51.5q29 13 39 13q29 0 53 -11t44 -30q17 -20 28.5 -43.5t11.5 -50.5z" />
    <glyph glyph-name="afii57453" unicode="&#xfe74;" arabic-form="isolated" 
d="M141 -961l-312 -170l-30 49l314 171zM141 -821l-313 -167l-30 46l315 174z" />
    <glyph glyph-name="afii57454" unicode="&#xfe76;" arabic-form="isolated" 
d="M376 1546l-327 -174l-37 63l328 180z" />
    <glyph glyph-name="afii57455" unicode="&#xfe78;" arabic-form="isolated" 
d="M284 1591q0 26 -23.5 44.5t-52.5 18.5q-67 0 -67 -72q0 -68 72 -68q22 0 46 27q25 26 25 50zM350 1589q0 -93 -56 -123l-230 -121l-38 61l117 63q-64 48 -64 113q0 89 92 131q14 5 23.5 7t13.5 2q27 0 52.5 -11t45.5 -29q20 -19 32 -43t12 -50z" />
    <glyph glyph-name="afii57456" unicode="&#xfe7a;" arabic-form="isolated" 
d="M138 -857l-313 -168l-30 49l311 172z" />
    <glyph glyph-name="afii57457" unicode="&#xfe7c;" arabic-form="isolated" 
d="M450 1561q0 -75 -38 -116q-19 -26 -44.5 -40t-55.5 -14q-22 0 -49 13.5t-56 38.5q-46 -52 -109 -52q-60 0 -98 56q-14 20 -21.5 49t-7.5 65h63q0 -96 70 -96q65 0 69 96h70q0 -96 70 -96q71 0 72 96h65z" />
    <glyph glyph-name="afii57458" unicode="&#xfe7e;" arabic-form="isolated" 
d="M268 1509q0 54 -52 71q-6 3 -11 4t-7 1q-26 0 -51 -22q-12 -12 -17 -26t-5 -28q0 -29 22.5 -49.5t50.5 -20.5q25 0 47 22q11 11 17 23.5t6 24.5zM334 1507q0 -59 -43 -96q-22 -17 -45 -26t-51 -9q-26 0 -51 11.5t-43 31.5q-17 21 -27 46t-10 51q0 31 11 54t31 42
q41 34 98 34q61 0 94 -41q36 -42 36 -98z" />
    <glyph glyph-name="uniFDFA" unicode="&#xfdfa;" horiz-adv-x="2415" arabic-form="isolated" 
 />
    <glyph glyph-name="uniFDF7" unicode="&#xfdf7;" horiz-adv-x="2650" arabic-form="isolated" 
 />
    <glyph glyph-name="afii57409" unicode="&#x621;" horiz-adv-x="625" arabic-form="isolated" 
d="M453 322l-392 -203l-61 113l111 59q-36 20 -55.5 55t-19.5 85q0 82 53 138q54 57 137 57q29 0 59.5 -7t62.5 -22l-25 -107q-45 20 -72 20q-83 0 -83 -72q0 -64 69 -64q29 0 69.5 13t91.5 38z" />
    <glyph glyph-name="afii57410" unicode="&#x622;" horiz-adv-x="561" arabic-form="isolated" 
d="M390 126h-174v1142h174v-1142zM214 1409q-75 0 -113 -38q-37 -37 -69 -98l-130 48q61 143 105 176q21 18 40.5 29.5t41.5 19t49.5 11t64.5 4.5h407v-152h-396z" />
    <glyph glyph-name="uniFE82" unicode="&#x622;" horiz-adv-x="561" arabic-form="final" 
d="M591 126q-226 0 -321 89q-56 56 -56 183v842h178v-762q0 -125 41 -149q27 -16 158 -24v-179zM214 1409q-75 0 -113 -38q-37 -37 -69 -98l-130 48q61 143 105 176q21 18 40.5 29.5t41.5 19t49.5 11t64.5 4.5h407v-152h-396z" />
    <glyph glyph-name="afii57411" unicode="&#x623;" horiz-adv-x="461" arabic-form="isolated" 
d="M344 1483l-258 -126l-27 55l72 38q-27 20 -44 48t-17 62q0 27 9.5 50t26 40t39 26.5t49.5 9.5q14 0 34.5 -5.5t49.5 -16.5l-28 -54q-14 11 -28.5 15t-29.5 4q-59 0 -59 -73q0 -57 56 -57q54 0 124 48zM289 126h-174v1142h174v-1142z" />
    <glyph glyph-name="uniFE84" unicode="&#x623;" horiz-adv-x="461" arabic-form="final" 
d="M340 1476l-254 -131l-29 61l70 40q-28 18 -44 45t-16 62q0 54 37 91q17 17 39.5 27t47.5 10q24 0 81 -24l-26 -56q-27 21 -56 21q-58 0 -58 -73q0 -57 55 -57q25 0 55 12t70 36zM491 126q-226 0 -321 89q-56 56 -56 183v842h178v-762q0 -125 41 -149q27 -16 158 -24v-179
z" />
    <glyph glyph-name="afii57412" unicode="&#x624;" horiz-adv-x="880" arabic-form="isolated" 
d="M371 1046l-313 -159l-31 66l90 51q-35 25 -57 58.5t-22 68.5q0 32 11 61.5t33 52.5q41 45 109 45q14 0 38 -6t60 -20l-35 -66q-32 25 -53 25q-43 0 -66 -23t-23 -69q0 -65 70 -65q24 0 62.5 13t89.5 39zM523 489q0 172 -139 172q-132 0 -132 -180q0 -121 82 -157
q21 -9 73 -13.5t116 -5.5v184zM708 103q0 -91 -35 -168t-103 -139q-64 -58 -143.5 -88.5t-171.5 -30.5h-230l-25 180h226q125 0 207 75q44 38 66 87.5t23 106.5q-101 1 -183.5 15.5t-133.5 43.5q-138 80 -138 275q0 188 57 272q77 108 250 108q106 0 179 -43t109 -122
q22 -51 34 -137.5t12 -206.5v-228z" />
    <glyph glyph-name="uniFE86" unicode="&#x624;" horiz-adv-x="802" arabic-form="final" 
d="M370 1046l-312 -159l-31 66l89 51q-35 25 -56.5 58.5t-21.5 68.5q0 32 11 61.5t32 52.5q41 45 109 45q14 0 38 -6t60 -20l-35 -66q-32 25 -53 25q-43 0 -66 -23t-23 -69q0 -65 70 -65q24 0 62.5 13t89.5 39zM529 477q0 107 -60 149q-47 35 -87 35q-132 0 -132 -180
q0 -121 86 -157q22 -9 74.5 -13.5t118.5 -5.5v172zM832 126h-119q-2 -94 -36.5 -178.5t-94.5 -144.5q-65 -60 -148.5 -93t-181.5 -33h-229l-23 180h225q124 0 207 73q45 38 67.5 88.5t24.5 107.5q-103 2 -187 16.5t-134 42.5q-67 40 -103.5 109t-36.5 166q0 186 60 271
q77 108 253 108q220 0 293 -171q11 -25 19 -63t13.5 -85t8.5 -101.5t3 -113.5h119v-179z" />
    <glyph glyph-name="afii57413" unicode="&#x625;" horiz-adv-x="461" arabic-form="isolated" 
d="M372 -207l-255 -127l-31 53l74 45q-33 20 -47 45.5t-14 61.5q0 52 35 90q37 38 92 38q11 0 31 -6t46 -20l-24 -51q-23 13 -57 13q-59 0 -59 -68q0 -58 55 -58q53 0 123 45zM289 126h-174v1142h174v-1142z" />
    <glyph glyph-name="uniFE88" unicode="&#x625;" horiz-adv-x="461" arabic-form="final" 
d="M427 -227l-258 -130l-28 59l74 40q-27 19 -45 46t-18 61q0 26 10 47.5t29 41.5q36 37 88 37q11 0 31.5 -5t50.5 -19l-29 -53q-28 18 -56 18q-59 0 -59 -71q0 -58 58 -58q26 0 56 11t66 35zM491 126q-226 0 -321 89q-56 56 -56 183v842h178v-762q0 -125 41 -149
q27 -16 158 -24v-179z" />
    <glyph glyph-name="afii57414" unicode="&#x626;" horiz-adv-x="1247" arabic-form="isolated" 
d="M412 908l-310 -160l-32 68l91 50q-37 26 -58 59t-21 70q0 62 43 113q41 45 108 45q31 0 99 -26l-35 -65q-35 24 -53 24q-42 0 -65 -23t-23 -68q0 -34 18.5 -50.5t51.5 -16.5q23 0 61.5 13.5t89.5 40.5zM1131 136q0 -204 -114 -330q-120 -129 -322 -129h-274
q-185 0 -304 137q-117 133 -117 322v368h169v-390q0 -117 85 -191q83 -71 201 -71h231q98 0 181 71q94 71 94 165q0 89 -62 110q-28 8 -115 12t-236 5v302q0 139 90 230q92 92 224 92h218l5 -168h-216q-48 0 -81.5 -27t-51.5 -75q-8 -25 -11.5 -76t-4.5 -108
q125 -2 206.5 -14t114.5 -30q43 -27 66.5 -78.5t23.5 -126.5z" />
    <glyph glyph-name="uniFE8A" unicode="&#x626;" horiz-adv-x="1233" arabic-form="final" 
d="M412 908l-310 -160l-32 68l91 50q-37 26 -58 59t-21 70q0 62 43 113q41 45 109 45q30 0 98 -26l-35 -65q-35 24 -52 24q-43 0 -66 -23t-23 -68q0 -34 18.5 -50.5t52.5 -16.5q23 0 61 13.5t89 40.5zM1263 126h-167q10 -29 10 -87q0 -159 -117 -265q-112 -97 -273 -97h-274
q-214 0 -333 152q-109 140 -109 362v317h181v-387q0 -63 23 -113t65 -85q41 -31 95 -48.5t115 -17.5h232q93 0 151 52q66 55 66 142q0 23 -13 37.5t-36 21.5q-29 5 -109 9t-211 7l-13 179h717v-179z" />
    <glyph glyph-name="uniFE8B" unicode="&#x626;" horiz-adv-x="690" arabic-form="initial" 
d="M451 883l-312 -157l-31 65l91 51q-36 26 -57 58.5t-21 69.5q0 34 10 62.5t33 51.5q41 44 109 44q27 0 98 -25l-35 -67q-16 12 -29 19.5t-24 7.5q-88 0 -88 -93q0 -67 69 -67q52 0 152 55zM518 416q0 -113 -71 -199q-72 -91 -187 -91h-290v179q280 0 310 12q58 20 58 161
v26t-1 35q0 9 -0.5 19t-0.5 21q-1 30 -1 61.5v47.5h183v-272z" />
    <glyph glyph-name="uniFE8C" unicode="&#x626;" horiz-adv-x="681" arabic-form="medial" 
d="M450 883l-312 -157l-31 65l91 51q-36 26 -57 58.5t-21 69.5q0 34 10 62.5t33 51.5q41 44 109 44q27 0 98 -25l-35 -67q-16 12 -29 19.5t-24 7.5q-88 0 -88 -93q0 -67 69 -67q52 0 152 55zM712 126h-33q-42 0 -72 2.5t-44 6.5q-21 7 -49 23.5t-56 38.5q-86 -71 -165 -71
h-323v179h214q111 -4 146 31q34 35 34 153v180q0 16 1 17l-1 2h187v-246q0 -89 41 -112q23 -17 120 -25v-179z" />
    <glyph glyph-name="afii57415" unicode="&#x627;" horiz-adv-x="461" arabic-form="isolated" 
d="M289 126h-174v1142h174v-1142z" />
    <glyph glyph-name="uniFE8E" unicode="&#x627;" horiz-adv-x="461" arabic-form="final" 
d="M491 126q-226 0 -321 89q-56 56 -56 183v842h178v-762q0 -125 41 -149q27 -16 158 -24v-179z" />
    <glyph glyph-name="afii57416" unicode="&#x628;" horiz-adv-x="1622" arabic-form="isolated" 
d="M895 -196q0 -25 -9.5 -48t-26.5 -40q-36 -36 -87 -36q-136 0 -136 124q0 107 132 107q127 0 127 -107zM1450 416q0 -113 -69 -199q-73 -91 -187 -91h-937q-113 0 -190 90q-67 80 -67 200v272h179v-246q0 -73 29 -105t103 -32h826q74 0 104.5 32t30.5 105v246h178v-272z
" />
    <glyph glyph-name="uniFE90" unicode="&#x628;" horiz-adv-x="1616" arabic-form="final" 
d="M847 -203q0 -25 -9.5 -48t-25.5 -40q-35 -37 -86 -37q-137 0 -137 125q0 107 128 107q130 0 130 -107zM1646 126q-210 0 -284 71q-88 -71 -171 -71h-936q-113 0 -186 91q-69 86 -69 199v272h177v-246q0 -74 30.5 -105.5t106.5 -31.5h825q37 0 61.5 7.5t39.5 24t21 42.5
t6 63v246h183v-246q0 -137 196 -137v-179z" />
    <glyph glyph-name="uniFE91" unicode="&#x628;" horiz-adv-x="690" arabic-form="initial" 
d="M355 -149q0 -51 -36 -87q-17 -17 -40 -26.5t-49 -9.5q-136 0 -136 123q0 107 128 107q133 0 133 -107zM518 416q0 -113 -71 -199q-72 -91 -187 -91h-290v179q280 0 310 12q58 20 58 161v26t-1 35q0 9 -0.5 19t-0.5 21q-1 30 -1 61.5v47.5h183v-272z" />
    <glyph glyph-name="uniFE92" unicode="&#x628;" horiz-adv-x="689" arabic-form="medial" 
d="M354 -149q0 -51 -36 -87q-17 -17 -40 -26.5t-49 -9.5q-136 0 -136 123q0 107 128 107q133 0 133 -107zM720 126h-59q-148 0 -230 71q-86 -71 -168 -71h-293v179q274 0 310 14q58 18 58 159v27t-1 36q0 9 -0.5 18.5t-0.5 20.5q-1 30 -1 61v47h185v-246q0 -87 59 -113
q36 -16 141 -24v-179z" />
    <glyph glyph-name="afii57417" unicode="&#x629;" horiz-adv-x="853" arabic-form="isolated" 
d="M260 1230q0 -23 -9 -42.5t-25 -33t-37 -21t-44 -7.5q-124 0 -124 104q0 99 111 99q128 0 128 -99zM603 1230q0 -23 -9 -42.5t-24.5 -33t-36 -21t-43.5 -7.5q-128 0 -128 104q0 99 116 99q125 0 125 -99zM502 441q0 52 -27 80l-144 152q-76 -74 -117 -135t-41 -103
q0 -64 51 -112q26 -22 57.5 -34t66.5 -12q65 0 109 47q45 48 45 117zM681 429q0 -66 -28.5 -125t-76.5 -104q-51 -46 -112.5 -70.5t-131.5 -24.5q-147 0 -240 100q-92 101 -92 247q0 75 52 165.5t148 188.5q-12 14 -26 28.5t-26 28.5l123 123l330 -338q80 -86 80 -219z" />
    <glyph glyph-name="uniFE94" unicode="&#x629;" horiz-adv-x="993" arabic-form="final" 
d="M294 1230q0 -47 -33 -75.5t-81 -28.5q-123 0 -123 104q0 99 112 99q125 0 125 -99zM634 1230q0 -47 -31 -75.5t-78 -28.5q-129 0 -129 104q0 99 116 99q122 0 122 -99zM511 435q0 64 -33 95l-143 143l-64.5 -64.5t-38.5 -40.5q-51 -68 -51 -133q0 -67 47 -112
q47 -44 114 -44q32 0 62.5 12t55.5 34q51 48 51 110zM1023 126q-116 0 -175 32q-11 8 -55 47.5t-125 114.5q-103 -215 -328 -215q-148 0 -244 96t-96 246q0 37 15 80t42 89t65.5 94t84.5 96q-12 14 -25 28.5t-25 28.5l119 123l538 -567q66 -73 85 -86h-1q40 -21 125 -28
v-179z" />
    <glyph glyph-name="afii57418" unicode="&#x62a;" horiz-adv-x="1622" arabic-form="isolated" 
d="M638 981q0 -22 -9 -41.5t-24 -34t-35.5 -23t-43.5 -8.5q-125 0 -125 107q0 97 112 97q125 0 125 -97zM980 981q0 -44 -34 -76q-17 -14 -37 -22.5t-43 -8.5q-124 0 -124 107q0 97 113 97q125 0 125 -97zM1450 416q0 -113 -69 -199q-73 -91 -187 -91h-937q-113 0 -190 90
q-67 80 -67 200v272h179v-246q0 -73 29 -105t103 -32h826q74 0 104.5 32t30.5 105v246h178v-272z" />
    <glyph glyph-name="uniFE96" unicode="&#x62a;" horiz-adv-x="1616" arabic-form="final" 
d="M676 981q0 -22 -8.5 -41t-23.5 -33t-35.5 -22t-43.5 -8q-125 0 -125 104q0 98 113 98q123 0 123 -98zM1022 981q0 -44 -34 -74t-82 -30q-125 0 -125 104q0 98 116 98q125 0 125 -98zM1646 126q-210 0 -284 71q-88 -71 -171 -71h-936q-113 0 -186 91q-69 86 -69 199v272
h177v-246q0 -74 30.5 -105.5t106.5 -31.5h825q37 0 61.5 7.5t39.5 24t21 42.5t6 63v246h183v-246q0 -137 196 -137v-179z" />
    <glyph glyph-name="uniFE97" unicode="&#x62a;" horiz-adv-x="773" arabic-form="initial" 
d="M277 919q0 -48 -34 -81q-34 -32 -80 -32q-49 0 -88 31q-40 31 -40 82q0 97 117 97q125 0 125 -97zM618 919q0 -24 -8.5 -44.5t-24 -36t-36 -24t-44.5 -8.5q-52 0 -91 31q-38 32 -38 82q0 97 118 97q124 0 124 -97zM606 416q0 -58 -18 -108.5t-52 -90.5q-35 -44 -82 -67.5
t-101 -23.5h-383v179h324q37 0 62 7.5t40 24t21.5 42.5t6.5 63v246h182v-272z" />
    <glyph glyph-name="uniFE98" unicode="&#x62a;" horiz-adv-x="750" arabic-form="medial" 
d="M276 919q0 -48 -34 -81q-34 -32 -80 -32q-49 0 -88 31q-40 31 -40 82q0 97 117 97q125 0 125 -97zM617 919q0 -24 -8.5 -44.5t-24 -36t-36 -24t-44.5 -8.5q-52 0 -91 31q-38 32 -38 82q0 97 118 97q124 0 124 -97zM778 126q-110 -1 -164 9q-46 21 -92 62
q-85 -71 -167 -71h-385v179h330q72 0 100.5 31.5t28.5 105.5v246h182v-246q0 -89 40 -113q30 -24 127 -24v-179z" />
    <glyph glyph-name="afii57419" unicode="&#x62b;" horiz-adv-x="1622" arabic-form="isolated" 
d="M650 919q0 -46 -33 -78q-34 -32 -80 -32q-51 0 -88 28q-39 30 -39 82q0 97 115 97q125 0 125 -97zM993 919q0 -23 -9 -43.5t-25 -35.5q-17 -14 -37.5 -22.5t-43.5 -8.5q-49 0 -86 28q-40 30 -40 82q0 97 114 97q127 0 127 -97zM821 1169q0 -45 -36 -78q-17 -14 -37.5 -22
t-42.5 -8q-26 0 -48.5 7.5t-39.5 20.5q-37 29 -37 80q0 99 113 99q128 0 128 -99zM1450 416q0 -113 -69 -199q-73 -91 -187 -91h-937q-113 0 -190 90q-67 80 -67 200v272h179v-246q0 -73 29 -105t103 -32h826q74 0 104.5 32t30.5 105v246h178v-272z" />
    <glyph glyph-name="uniFE9A" unicode="&#x62b;" horiz-adv-x="1616" arabic-form="final" 
d="M671 919q0 -46 -33 -78q-34 -32 -78 -32q-52 0 -86 28q-41 32 -41 82q0 97 116 97q122 0 122 -97zM1013 919q0 -24 -8.5 -44t-24 -35t-36.5 -23t-46 -8q-49 0 -85 28q-38 32 -38 82q0 97 113 97q125 0 125 -97zM842 1169q0 -23 -9 -43t-24.5 -34.5t-36.5 -22.5t-44 -8
q-125 0 -125 108q0 99 114 99q125 0 125 -99zM1646 126q-210 0 -284 71q-88 -71 -171 -71h-936q-113 0 -186 91q-69 86 -69 199v272h177v-246q0 -74 30.5 -105.5t106.5 -31.5h825q37 0 61.5 7.5t39.5 24t21 42.5t6 63v246h183v-246q0 -137 196 -137v-179z" />
    <glyph glyph-name="uniFE9B" unicode="&#x62b;" horiz-adv-x="773" arabic-form="initial" 
d="M277 919q0 -48 -34 -81q-34 -32 -80 -32q-49 0 -88 31q-40 31 -40 82q0 97 117 97q125 0 125 -97zM618 919q0 -24 -8.5 -44.5t-24 -36t-36 -24t-44.5 -8.5q-52 0 -91 31q-38 32 -38 82q0 97 118 97q124 0 124 -97zM445 1169q0 -25 -9 -45.5t-24.5 -35.5t-36.5 -23t-44 -8
q-26 0 -48.5 8.5t-39.5 22.5q-40 31 -40 81q0 99 116 99q126 0 126 -99zM606 416q0 -58 -18 -108.5t-52 -90.5q-35 -44 -82 -67.5t-101 -23.5h-383v179h324q37 0 62 7.5t40 24t21.5 42.5t6.5 63v246h182v-272z" />
    <glyph glyph-name="uniFE9C" unicode="&#x62b;" horiz-adv-x="750" arabic-form="medial" 
d="M276 919q0 -48 -34 -81q-34 -32 -80 -32q-49 0 -88 31q-40 31 -40 82q0 97 117 97q125 0 125 -97zM617 919q0 -24 -8.5 -44.5t-24 -36t-36 -24t-44.5 -8.5q-52 0 -91 31q-38 32 -38 82q0 97 118 97q124 0 124 -97zM444 1169q0 -25 -9 -45.5t-24.5 -35.5t-36.5 -23t-44 -8
q-26 0 -48.5 8.5t-39.5 22.5q-40 31 -40 81q0 99 116 99q126 0 126 -99zM778 126q-110 -1 -164 9q-46 21 -92 62q-85 -71 -167 -71h-385v179h330q72 0 100.5 31.5t28.5 105.5v246h182v-246q0 -89 40 -113q30 -24 127 -24v-179z" />
    <glyph glyph-name="afii57420" unicode="&#x62c;" horiz-adv-x="1133" arabic-form="isolated" 
d="M768 -205q0 -53 -37 -90t-92 -37q-52 0 -92 34q-42 33 -42 89q0 112 128 112q135 0 135 -108zM1075 -729h-487q-125 0 -231 39.5t-187 111.5q-81 77 -125.5 178.5t-44.5 223.5q0 295 261 443l544 295q-37 74 -119 88q-75 14 -476 15l-19 174h431q372 0 372 -368
l-587 -328q-116 -66 -176 -150t-60 -181q0 -143 111 -254q113 -113 259 -113h520z" />
    <glyph glyph-name="uniFE9E" unicode="&#x62c;" horiz-adv-x="1057" arabic-form="final" 
d="M190 667q2 1 6 1h14v-1h-20zM766 -196q0 -52 -37 -88q-36 -36 -90 -36q-56 0 -92 30q-42 34 -42 88q0 113 127 113q134 0 134 -107zM1086 126q-165 6 -218 35q-77 47 -90 90l-6 22t-7 24q-2 9 -4 17.5t-5 18.5q-86 -46 -175.5 -95t-175.5 -95q-115 -67 -174.5 -150.5
t-59.5 -180.5q0 -143 111 -254q113 -113 258 -113h519l14 -174h-485q-125 0 -231 39.5t-187 111.5q-81 77 -125.5 178.5t-44.5 223.5q0 294 260 443l544 295q-19 26 -56.5 46t-88.5 34t-114 21.5t-134 7.5q-153 -3 -201 -3q-5 42 -9.5 85.5t-9.5 85.5h429q373 0 373 -368
l-159 -92q19 -53 109 -67q27 -7 143 -7v-179z" />
    <glyph glyph-name="uniFE9F" unicode="&#x62c;" horiz-adv-x="1116" arabic-form="initial" 
d="M359 -193q0 -51 -36 -87q-34 -36 -89 -36q-60 0 -97 29q-39 34 -39 91q0 115 130 115q131 0 131 -112zM592 239q-72 -41 -149.5 -66t-153.5 -34q-41 -7 -121 -10t-198 -3v179q174 0 294.5 17t190.5 50h-1q-2 0 18 10.5t53 27.5q13 7 28.5 15t32.5 17h-1q23 14 56 31.5
t74 40.5q20 11 42 23t45 25q-17 34 -46.5 57.5t-68.5 33.5q-35 8 -154 8l-316 4l-24 174h440q363 0 363 -368z" />
    <glyph glyph-name="uniFEA0" unicode="&#x62c;" horiz-adv-x="1029" arabic-form="medial" 
d="M525 -203q0 -51 -36 -88q-36 -38 -88 -38q-55 0 -93 33q-20 17 -31 40t-11 49q0 110 129 110q130 0 130 -106zM1059 126q-126 3 -194.5 33.5t-83.5 87.5q-6 20 -12 41.5t-11 44.5q-57 -33 -112.5 -62t-104.5 -52t-89 -39.5t-67 -23.5q-54 -14 -158.5 -22t-256.5 -8v179
q343 0 485 67q31 15 347 190q-17 32 -47 56t-68 35q-35 8 -154 8l-316 4l-24 174h440q363 0 363 -368l-162 -91q2 -36 57.5 -55.5t167.5 -19.5v-179z" />
    <glyph glyph-name="afii57421" unicode="&#x62d;" horiz-adv-x="1133" arabic-form="isolated" 
d="M1075 -729h-486q-286 0 -457 199q-132 154 -132 345v41q0 3 1 7q1 3 2 7.5t2 9.5q1 3 1 6t1 6q17 121 83 217.5t174 157.5q133 72 271 147t270 148q-31 53 -115.5 81t-222.5 28h-57q-46 -2 -96.5 -3t-96.5 -3h-37v2q5 2 16 2.5t20 0.5q-6 42 -12.5 84.5t-12.5 84.5h431
q367 0 371 -368l-585 -328q-116 -66 -176 -150t-60 -181q0 -140 112 -253q113 -114 257 -114h520z" />
    <glyph glyph-name="uniFEA2" unicode="&#x62d;" horiz-adv-x="1058" arabic-form="final" 
d="M1088 126q-266 0 -310 125q-1 7 -4 16.5t-6 20.5q-5 17 -13 45q-85 -46 -174 -95t-174 -95q-115 -66 -175 -150t-60 -181q0 -143 111 -254q113 -113 258 -113h523l11 -174h-487q-285 0 -457 199q-131 157 -131 345v42q1 0 4 35q14 125 79.5 219t176.5 156
q134 72 274.5 147t274.5 148q-19 32 -50 55t-67 33q-31 6 -159 9q-87 4 -319 6l-23 174h430q366 0 373 -368l-160 -92q14 -74 254 -74v-179z" />
    <glyph glyph-name="uniFEA3" unicode="&#x62d;" horiz-adv-x="1116" arabic-form="initial" 
d="M592 239q-67 -38 -147.5 -62t-155.5 -35q-35 -5 -114.5 -9t-204.5 -7v179h141q196 0 362 76q15 6 100.5 53t228.5 128q-16 29 -47 52.5t-76 36.5q-18 2 -133 5.5t-329 8.5l-24 174h440q362 0 363 -368z" />
    <glyph glyph-name="uniFEA4" unicode="&#x62d;" horiz-adv-x="1029" arabic-form="medial" 
d="M1059 126q-120 0 -189.5 32t-88.5 89q-3 8 -5.5 16.5t-5.5 19.5q-1 3 -3 11l-8 38q-115 -67 -212.5 -113t-161.5 -63q-105 -24 -415 -30v179h141q94 0 185 19.5t177 56.5q26 12 107.5 56.5t221.5 124.5q-16 31 -47 54t-76 35q-15 5 -106 5q-46 1 -356 9l-24 174h440
q357 0 363 -372l-162 -88q3 -74 225 -74v-179z" />
    <glyph glyph-name="afii57422" unicode="&#x62e;" horiz-adv-x="1133" arabic-form="isolated" 
d="M712 1160q0 -54 -39 -90q-38 -37 -86 -37q-142 0 -142 127q0 105 134 105q133 0 133 -105zM1075 -729h-487q-125 0 -231 39.5t-187 111.5q-81 77 -125.5 178.5t-44.5 223.5q0 295 261 443l544 295q-37 74 -119 88q-75 14 -476 15l-19 174h431q372 0 372 -368l-587 -328
q-116 -66 -176 -150t-60 -181q0 -143 111 -254q113 -113 259 -113h520z" />
    <glyph glyph-name="uniFEA6" unicode="&#x62e;" horiz-adv-x="1057" arabic-form="final" 
d="M190 667q2 1 6 1h14v-1h-20zM681 1160q0 -54 -36 -90q-36 -37 -87 -37q-135 0 -135 127q0 108 130 108q128 0 128 -108zM1086 126q-165 6 -218 35q-77 47 -90 90l-6 22t-7 24q-2 9 -4 17.5t-5 18.5q-86 -46 -175.5 -95t-175.5 -95q-115 -67 -174.5 -150.5t-59.5 -180.5
q0 -143 111 -254q113 -113 258 -113h519l14 -174h-485q-125 0 -231 39.5t-187 111.5q-81 77 -125.5 178.5t-44.5 223.5q0 294 260 443l544 295q-19 26 -56.5 46t-88.5 34t-114 21.5t-134 7.5q-153 -3 -201 -3q-5 42 -9.5 85.5t-9.5 85.5h429q373 0 373 -368l-159 -92
q19 -53 109 -67q27 -7 143 -7v-179z" />
    <glyph glyph-name="uniFEA7" unicode="&#x62e;" horiz-adv-x="1116" arabic-form="initial" 
d="M655 1157q0 -53 -36 -89t-88 -36q-139 0 -139 125q0 106 132 106q131 0 131 -106zM592 239q-72 -41 -149.5 -66t-153.5 -34q-41 -7 -121 -10t-198 -3v179q174 0 294.5 17t190.5 50h-1q-2 0 18 10.5t53 27.5q13 7 28.5 15t32.5 17h-1q23 14 56 31.5t74 40.5q20 11 42 23
t45 25q-17 34 -46.5 57.5t-68.5 33.5q-35 8 -154 8l-316 4l-24 174h440q363 0 363 -368z" />
    <glyph glyph-name="uniFEA8" unicode="&#x62e;" horiz-adv-x="1029" arabic-form="medial" 
d="M615 1184q0 -52 -35 -90q-35 -37 -90 -37q-60 0 -96.5 34.5t-36.5 92.5q0 104 130 104q128 0 128 -104zM1059 126q-126 3 -194.5 33.5t-83.5 87.5q-6 20 -12 41.5t-11 44.5q-57 -33 -112.5 -62t-104.5 -52t-89 -39.5t-67 -23.5q-54 -14 -158.5 -22t-256.5 -8v179
q343 0 485 67q31 15 347 190q-17 32 -47 56t-68 35q-35 8 -154 8l-316 4l-24 174h440q363 0 363 -368l-162 -91q2 -36 57.5 -55.5t167.5 -19.5v-179z" />
    <glyph glyph-name="afii57423" unicode="&#x62f;" horiz-adv-x="1014" arabic-form="isolated" 
d="M841 359q0 -109 -78 -172q-76 -61 -184 -61h-552l-27 179h565q97 0 97 70q0 17 -7 33t-19 30q-99 105 -201 212.5t-201 212.5l124 123l400 -423q41 -43 62 -94t21 -110z" />
    <glyph glyph-name="uniFEAA" unicode="&#x62f;" horiz-adv-x="1090" arabic-form="final" 
d="M1120 126h-79q-51 0 -106.5 31t-118.5 91q-41 -59 -100.5 -90.5t-135.5 -31.5h-552l-28 179h567q95 0 95 66q0 39 -27 67l-400 425l123 123l536 -567q35 -38 58 -59t36 -28q45 -27 132 -27v-179z" />
    <glyph glyph-name="afii57424" unicode="&#x630;" horiz-adv-x="1015" arabic-form="isolated" 
d="M496 1282q0 -56 -37 -90q-38 -35 -89 -35q-136 0 -136 125q0 106 130 106q132 0 132 -106zM841 366q0 -112 -73 -177q-75 -63 -188 -63h-552l-28 179h567q95 0 95 70q0 35 -27 63l-400 425l123 123l401 -423q38 -42 60 -91.5t22 -105.5z" />
    <glyph glyph-name="uniFEAC" unicode="&#x630;" horiz-adv-x="1090" arabic-form="final" 
d="M380 1193q0 -27 -9 -49.5t-25.5 -39t-38.5 -26t-48 -9.5q-137 0 -137 124q0 106 130 106q128 0 128 -106zM1120 126h-81q-49 0 -106 32.5t-116 89.5q-49 -66 -101 -95q-52 -27 -135 -27h-555l-26 179h566q96 0 96 66q0 39 -27 67l-401 425l121 123l534 -567
q29 -30 56.5 -54t41.5 -33q23 -13 56.5 -20t76.5 -7v-179z" />
    <glyph glyph-name="afii57425" unicode="&#x631;" horiz-adv-x="717" arabic-form="isolated" 
d="M542 157q0 -198 -124 -338q-127 -142 -323 -142h-239l-28 184h202q63 0 119 16.5t102 45.5q51 35 78.5 83.5t27.5 107.5v574h185v-531z" />
    <glyph glyph-name="uniFEAE" unicode="&#x631;" horiz-adv-x="700" arabic-form="final" 
d="M730 126q-130 0 -188 83q-1 -222 -113 -371q-119 -161 -340 -161h-230l-30 180h250q54 0 103 18.5t90 52.5q41 38 64 85.5t23 100.5v574h181v-257q0 -118 190 -126v-179z" />
    <glyph glyph-name="afii57426" unicode="&#x632;" horiz-adv-x="717" arabic-form="isolated" 
d="M533 1169q0 -27 -9.5 -50t-26 -39.5t-39 -25.5t-48.5 -9q-138 0 -138 124q0 107 131 107q130 0 130 -107zM542 157q0 -196 -124 -338q-127 -142 -323 -142h-237l-30 184h202q59 0 116 17t105 45q51 35 78.5 83.5t27.5 107.5v574h185v-531z" />
    <glyph glyph-name="uniFEB0" unicode="&#x632;" horiz-adv-x="700" arabic-form="final" 
d="M532 1160q0 -54 -36 -90q-34 -37 -90 -37q-137 0 -137 127q0 105 130 105q133 0 133 -105zM730 126q-136 3 -188 83q-1 -222 -113 -371q-119 -161 -340 -161h-230l-30 180h250q108 0 190 75q90 77 90 182v574h181v-257q0 -126 190 -126v-179z" />
    <glyph glyph-name="afii57427" unicode="&#x633;" horiz-adv-x="2230" arabic-form="isolated" 
d="M2055 411q0 -61 -15 -113t-43 -91q-32 -49 -79.5 -74.5t-108.5 -25.5q-60 0 -122 31t-126 91q-87 -122 -208 -122q-48 0 -97 18t-103 54q-1 -105 -29.5 -193.5t-82.5 -157.5q-60 -72 -143.5 -111.5t-185.5 -39.5h-271q-193 0 -319 134q-122 133 -122 329v368h173v-377
q0 -123 85 -199q80 -75 203 -75h231q125 0 201 76q76 75 76 198v557h180v-265q0 -29 12.5 -55t34.5 -47q50 -42 111 -42q118 0 118 111v298h177v-263q0 -60 44 -104q45 -42 109 -42q124 0 124 111v298h176v-277z" />
    <glyph glyph-name="uniFEB2" unicode="&#x633;" horiz-adv-x="2233" arabic-form="final" 
d="M2263 126q-52 2 -87.5 5.5t-52.5 10.5q-32 8 -60 27.5t-46 51.5q-81 -114 -223 -114q-66 0 -125.5 31.5t-110.5 90.5q-46 -61 -102.5 -94t-122.5 -33q-93 0 -178 77q-2 -209 -111 -350q-123 -152 -327 -152h-278q-190 0 -318 134q-121 133 -121 329v368h180v-377
q0 -121 80 -198q79 -76 200 -76h233q125 0 204 76q80 75 80 198v557h178v-265q0 -30 12.5 -57t32.5 -47q46 -40 108 -40q120 0 120 111v298h176v-263q0 -30 12 -56t34 -48q48 -42 107 -42q123 0 123 111v298h176v-277q0 -59 63 -88q21 -9 144 -18v-179z" />
    <glyph glyph-name="uniFEB3" unicode="&#x633;" horiz-adv-x="1563" arabic-form="initial" 
d="M1545 436q0 -73 -25 -130t-69.5 -96t-107.5 -60t-139 -21q-124 0 -257 114q-132 -112 -257 -112q-111 0 -244 110l-10 6q-20 -25 -42 -47.5t-48.5 -38.5t-61 -25.5t-80.5 -9.5h-227v179h226q86 0 121.5 44.5t35.5 133.5v251h170v-249q0 -39 11 -72.5t32 -59t51 -40
t69 -14.5q86 0 129 47.5t43 135.5v252h172v-258q0 -80 45.5 -128.5t122.5 -48.5q83 0 125 45t42 128v262h173v-298z" />
    <glyph glyph-name="uniFEB4" unicode="&#x633;" horiz-adv-x="1700" arabic-form="medial" 
d="M1403 237q-12 -14 -26 -27q-45 -39 -108 -60t-139 -21q-124 0 -257 114q-132 -112 -257 -112q-111 0 -244 110l-10 6q-20 -25 -42 -47.5t-48.5 -38.5t-61 -25.5t-80.5 -9.5h-157v179h156q86 0 121.5 44.5t35.5 133.5v251h170v-249q0 -39 11 -72.5t32 -59t51 -40t69 -14.5
q86 0 129 47.5t43 135.5v252h172v-258q0 -80 45.5 -128.5t122.5 -48.5q83 0 125 45t42 128v262h173v-252q0 -88 35.5 -132.5t121.5 -44.5h96v-179h-97q-46 0 -80.5 9t-61 25.5t-48.5 39.5q-18 17 -34 37z" />
    <glyph glyph-name="afii57428" unicode="&#x634;" horiz-adv-x="2230" arabic-form="isolated" 
d="M1791 919q0 -48 -32.5 -79t-81.5 -31q-50 0 -87 28q-35 30 -35 82q0 97 110 97q126 0 126 -97zM1450 919q0 -47 -34 -78q-35 -32 -81 -32q-48 0 -84 28q-40 31 -40 82q0 97 114 97q125 0 125 -97zM1618 1169q0 -23 -9 -43t-24.5 -34.5t-36.5 -22.5t-44 -8q-26 0 -48 7.5
t-39 20.5q-37 29 -37 80q0 99 114 99q124 0 124 -99zM2055 411q0 -61 -15 -113t-43 -91q-32 -49 -79.5 -74.5t-108.5 -25.5q-63 0 -126.5 32.5t-121.5 89.5q-47 -59 -99 -90.5t-109 -31.5q-89 0 -200 73q-4 -209 -112 -351q-128 -152 -329 -152h-271q-190 0 -318 134
q-123 135 -123 329v368h173v-377q0 -125 85 -201q76 -73 203 -73h231q124 0 200 76q77 77 77 198v557h180v-265q0 -29 12.5 -55t34.5 -47q50 -42 111 -42q118 0 118 111v298h177v-263q0 -62 43 -104q44 -42 110 -42q124 0 124 111v298h176v-277z" />
    <glyph glyph-name="uniFEB6" unicode="&#x634;" horiz-adv-x="2233" arabic-form="final" 
d="M1512 1056q-26 0 -48 8t-39 22q-40 26 -40 79q0 98 118 98q46 0 80 -23q41 -29 41 -68q0 -47 -33 -82q-34 -34 -79 -34zM1453 916q0 -23 -9.5 -44t-25.5 -36q-17 -14 -37 -22.5t-42 -8.5q-51 0 -87 30q-40 28 -40 81q0 95 116 95q125 0 125 -95zM1798 916q0 -23 -9.5 -44
t-25.5 -36q-17 -14 -37.5 -22.5t-43.5 -8.5q-52 0 -88 30q-39 28 -39 81q0 95 115 95q128 0 128 -95zM2263 126h-60q-128 0 -192 97q-77 -113 -220 -113q-68 0 -127.5 31.5t-106.5 88.5q-47 -59 -103.5 -92t-120.5 -33q-94 0 -176 74q-6 -208 -115 -350q-123 -152 -326 -152
h-277q-190 0 -318 134q-121 138 -121 329v368h178v-377q0 -123 79 -198q79 -76 203 -76h233q123 0 203 76q81 77 81 198v557h180v-265q0 -60 42 -102q44 -42 106 -42q122 0 122 111v298h179v-263q0 -64 44 -105q46 -41 106 -41q124 0 124 111v298h176v-277q0 -106 207 -106
v-179z" />
    <glyph glyph-name="uniFEB7" unicode="&#x634;" horiz-adv-x="1554" arabic-form="initial" 
d="M907 1054q0 -48 -33 -81q-34 -32 -80 -32q-25 0 -48 8t-39.5 22.5t-26.5 35.5t-10 47q0 94 113 94q124 0 124 -94zM1246 1054q0 -51 -31 -82t-79 -31q-50 0 -89 30q-37 31 -37 83q0 94 112 94q124 0 124 -94zM1077 1304q0 -24 -9.5 -45t-25.5 -37q-17 -14 -36.5 -22
t-41.5 -8q-26 0 -48.5 9t-39.5 23q-40 31 -40 80q0 96 114 96q127 0 127 -96zM1545 436q0 -73 -25 -130t-69.5 -96t-107.5 -60t-139 -21q-124 0 -257 114q-132 -112 -257 -112q-111 0 -244 110l-10 6q-20 -25 -42 -47.5t-48.5 -38.5t-61 -25.5t-80.5 -9.5h-227v179h226
q86 0 121.5 44.5t35.5 133.5v251h170v-249q0 -39 11 -72.5t32 -59t51 -40t69 -14.5q86 0 129 47.5t43 135.5v252h172v-258q0 -80 45.5 -128.5t122.5 -48.5q83 0 125 45t42 128v262h173v-298z" />
    <glyph glyph-name="uniFEB8" unicode="&#x634;" horiz-adv-x="1560" arabic-form="medial" 
d="M879 1158q-51 0 -88 29q-41 35 -41 80q0 101 120 101q24 0 44 -6t36 -17q42 -28 42 -73q0 -22 -8.5 -42.5t-22.5 -37.5q-16 -16 -37 -25t-45 -9zM1165 1018q0 -46 -34 -77q-32 -31 -81 -31q-26 0 -49 8t-40 22t-27 34t-10 44q0 100 114 100q127 0 127 -100zM821 1018
q0 -45 -35 -77q-34 -31 -80 -31q-51 0 -87 27q-40 33 -40 81q0 100 117 100q125 0 125 -100zM1403 237q-12 -14 -26 -27q-45 -39 -108 -60t-139 -21q-124 0 -257 114q-132 -112 -257 -112q-111 0 -244 110l-10 6q-20 -25 -42 -47.5t-48.5 -38.5t-61 -25.5t-80.5 -9.5h-157
v179h156q86 0 121.5 44.5t35.5 133.5v251h170v-249q0 -39 11 -72.5t32 -59t51 -40t69 -14.5q86 0 129 47.5t43 135.5v252h172v-258q0 -80 45.5 -128.5t122.5 -48.5q83 0 125 45t42 128v262h173v-252q0 -88 35.5 -132.5t121.5 -44.5h96v-179h-97q-46 0 -80.5 9t-61 25.5
t-48.5 39.5q-18 17 -34 37z" />
    <glyph glyph-name="afii57429" unicode="&#x635;" horiz-adv-x="2312" arabic-form="isolated" 
d="M1968 469q0 52 -32 118q-33 74 -77 74q-43 0 -95 -35t-110 -102q-45 -54 -81.5 -109.5t-60.5 -109.5h339q117 0 117 164zM2140 442q0 -147 -85 -232q-84 -84 -231 -84h-483q-148 0 -183 91q0 -214 -111 -367q-128 -173 -335 -173h-272q-190 0 -318 143q-122 143 -122 337
v351h179v-394q0 -98 91 -176q88 -77 184 -77h247q51 0 98 19t88 55q41 38 64 84.5t23 94.5v574h187v-265q0 -54 41.5 -83.5t121.5 -34.5q40 97 87.5 186t98.5 157q150 191 314 191q146 0 233 -130q7 -11 15.5 -25.5t18.5 -32.5q2 -10 11 -38t23 -66q15 -39 15 -105z" />
    <glyph glyph-name="uniFEBA" unicode="&#x635;" horiz-adv-x="2171" arabic-form="final" 
d="M1941 487q0 170 -108 170q-75 0 -158.5 -92t-171.5 -260h341q97 0 97 182zM2201 126h-813q-196 0 -240 91q0 -119 -24.5 -212t-73.5 -165q-121 -163 -345 -163h-277q-198 0 -317 141q-111 135 -111 339v351h173v-394q0 -106 80 -181q80 -76 189 -76h251q101 0 188 78
t87 179v574h180v-265q0 -57 45 -86.5t126 -31.5q52 127 109.5 226.5t119 168t126.5 104.5t133 36q183 0 277 -178q40 -80 40 -203q0 -67 -26 -154h103v-179z" />
    <glyph glyph-name="uniFEBB" unicode="&#x635;" horiz-adv-x="1612" arabic-form="initial" 
d="M1263 478q0 117 -58 160q-19 19 -51 19q-75 0 -161 -92.5t-175 -259.5h345q100 0 100 173zM1440 475q0 -78 -23 -159q-33 -120 -100 -160q-57 -30 -187 -30h-452q-185 0 -254 144q-106 -144 -238 -144h-216v179h196q125 0 125 134v249h177v-231q0 -75 43 -112.5
t126 -39.5q103 263 226.5 398.5t266.5 135.5q32 0 68 -11.5t70 -29.5q85 -49 128.5 -130t43.5 -193z" />
    <glyph glyph-name="uniFEBC" unicode="&#x635;" horiz-adv-x="1549" arabic-form="medial" 
d="M1263 478q0 117 -58 160q-19 19 -51 19q-75 0 -161 -92.5t-175 -259.5h345q100 0 100 173zM1579 126h-901q-185 0 -254 144q-105 -144 -238 -144h-216v179h196q125 0 125 134v249h177v-231q0 -75 43 -112.5t126 -39.5q103 263 227 398.5t267 135.5q72 0 140 -41h-1
q170 -98 170 -327q0 -32 -6.5 -75t-18.5 -91h164v-179z" />
    <glyph glyph-name="afii57430" unicode="&#x636;" horiz-adv-x="2312" arabic-form="isolated" 
d="M1799 1167q0 -26 -10 -48.5t-27 -39t-40 -25.5t-49 -9q-134 0 -134 122q0 107 131 107q129 0 129 -107zM1969 464q0 29 -7 59.5t-20 61.5q-17 35 -38.5 55.5t-44.5 20.5q-43 0 -95 -35t-110 -102q-46 -55 -82 -110.5t-60 -108.5h344q113 0 113 159zM2140 442
q0 -148 -84 -232t-232 -84h-483q-155 0 -183 88q-4 -210 -113 -364q-126 -173 -333 -173h-272q-192 0 -318 142q-122 142 -122 338v351h179v-394q0 -100 90 -178q86 -75 185 -75h247q98 0 186 80q87 80 87 173v574h187v-265q0 -57 43 -86.5t122 -31.5q112 263 237 398.5
t262 135.5q145 0 233 -129q82 -119 82 -268z" />
    <glyph glyph-name="uniFEBE" unicode="&#x636;" horiz-adv-x="2171" arabic-form="final" 
d="M1785 1154q0 -52 -37 -88t-89 -36q-135 0 -135 124q0 105 130 105q131 0 131 -105zM1941 478q0 179 -108 179q-38 0 -89 -37t-105 -99q-38 -50 -75 -107.5t-60 -108.5h340q97 0 97 173zM2203 126h-815q-200 0 -237 90q-3 -236 -103 -376q-118 -163 -346 -163h-273
q-194 0 -314 142q-115 139 -115 338v351h172v-394q0 -104 82 -180q83 -77 188 -77h251q98 0 187 80t89 177v574h179v-265q0 -57 45 -86.5t126 -31.5q109 263 232 399t257 136q71 0 144 -42q170 -98 170 -331q0 -40 -7 -81.5t-19 -80.5h107v-179z" />
    <glyph glyph-name="uniFEBF" unicode="&#x636;" horiz-adv-x="1612" arabic-form="initial" 
d="M1020 1179q0 -52 -36 -91q-36 -36 -88 -36q-134 0 -134 127q0 104 128 104q130 0 130 -104zM1154 657q-84 0 -199 -136q-44 -50 -78.5 -104.5t-59.5 -111.5h340q103 0 103 166q0 186 -106 186zM1440 477q0 -81 -23 -161q-33 -117 -100 -160q-55 -30 -187 -30h-452
q-178 0 -255 144q-105 -144 -240 -144h-213v179h196q125 0 125 130v253h177v-231q0 -75 44.5 -112.5t125.5 -39.5q110 263 234 398.5t258 135.5q37 0 72.5 -10.5t68.5 -30.5q81 -51 125 -132.5t44 -188.5z" />
    <glyph glyph-name="uniFEC0" unicode="&#x636;" horiz-adv-x="1549" arabic-form="medial" 
d="M1028 1183q0 -52 -39 -90q-37 -36 -91 -36q-134 0 -134 126q0 105 129 105q135 0 135 -105zM1154 657q-84 0 -199 -136q-44 -50 -78.5 -104.5t-59.5 -111.5h340q103 0 103 166q0 186 -106 186zM1579 126h-901q-178 0 -255 144q-103 -144 -240 -144h-213v179h196
q125 0 125 130v253h177v-231q0 -75 44.5 -112.5t125.5 -39.5q110 263 234 398.5t259 135.5q37 0 72.5 -10.5t67.5 -30.5q81 -52 124 -134t43 -193q0 -83 -24 -166h165v-179z" />
    <glyph glyph-name="afii57431" unicode="&#x637;" horiz-adv-x="1112" arabic-form="isolated" 
d="M755 491q0 166 -106 166q-43 0 -94.5 -35.5t-107.5 -100.5q-18 -23 -36.5 -50t-36 -55t-33 -56.5t-27.5 -54.5h339q41 0 77 57q25 37 25 129zM940 444q0 -132 -78 -222q-38 -47 -90.5 -71.5t-118.5 -24.5h-616l-37 179h148v963h176v-633q87 103 162 153.5t143 50.5
q142 0 227 -130q84 -121 84 -265z" />
    <glyph glyph-name="uniFEC2" unicode="&#x637;" horiz-adv-x="981" arabic-form="final" 
d="M761 491q0 166 -107 166q-86 0 -200 -136q-42 -49 -76 -104t-60 -112h340q43 0 77 57q26 38 26 129zM1011 126h-974l-37 179h152v963h178v-632q167 203 305 203q57 0 134 -41q171 -97 171 -363q0 -28 -7 -61t-21 -69h99v-179z" />
    <glyph glyph-name="uniFEC3" unicode="&#x637;" horiz-adv-x="1082" arabic-form="initial" 
d="M617 656q-85 0 -199 -136q-93 -108 -138 -215h345q104 0 104 160q0 191 -112 191zM-30 126v179h151v963h179v-632q169 202 304 202q137 0 227 -123q79 -109 79 -256q0 -74 -16.5 -131t-49.5 -102q-78 -100 -219 -100h-655z" />
    <glyph glyph-name="uniFEC4" unicode="&#x637;" horiz-adv-x="943" arabic-form="medial" 
d="M709 491q0 166 -106 166q-43 0 -96 -37t-107 -99q-38 -48 -74 -106t-62 -110h343q40 0 74 57q28 37 28 129zM973 126h-1003v179h131v963h172v-632q170 203 311 203q27 0 60.5 -10.5t69.5 -30.5q80 -45 123.5 -129t43.5 -205q0 -47 -6 -86t-17 -73h115v-179z" />
    <glyph glyph-name="afii57432" unicode="&#x638;" horiz-adv-x="1110" arabic-form="isolated" 
d="M789 1169q0 -27 -9.5 -50t-26.5 -39.5t-40 -25.5t-50 -9q-136 0 -136 124q0 107 131 107t131 -107zM753 484q0 173 -104 173q-42 0 -93 -34.5t-109 -101.5q-42 -53 -76 -107.5t-58 -108.5h340q100 0 100 179zM37 126l-37 179h148v963h177v-632q167 203 304 203
q69 0 126 -32t101 -94q39 -56 60.5 -120.5t21.5 -133.5q0 -140 -72 -233q-36 -47 -90.5 -73.5t-122.5 -26.5h-616z" />
    <glyph glyph-name="uniFEC6" unicode="&#x638;" horiz-adv-x="981" arabic-form="final" 
d="M783 1167q0 -26 -9.5 -48.5t-26 -39t-40 -25.5t-50.5 -9q-133 0 -133 122q0 107 129 107q130 0 130 -107zM757 484q0 173 -104 173q-42 0 -93.5 -34.5t-109.5 -101.5q-42 -52 -77 -107.5t-57 -108.5h340q101 0 101 179zM1011 126h-976l-35 179h152v963h178v-632
q165 203 302 203q64 0 138 -41q170 -104 170 -302q0 -57 -7.5 -105t-21.5 -86h100v-179z" />
    <glyph glyph-name="uniFEC7" unicode="&#x638;" horiz-adv-x="1082" arabic-form="initial" 
d="M739 1152q0 -28 -9.5 -51.5t-26 -40t-39.5 -25.5t-49 -9q-135 0 -135 126q0 106 129 106q130 0 130 -106zM617 656q-85 0 -199 -136q-93 -108 -138 -215h345q104 0 104 160q0 191 -112 191zM-30 126v179h151v963h179v-632q169 202 304 202q137 0 227 -123
q79 -109 79 -256q0 -74 -16.5 -131t-49.5 -102q-78 -100 -219 -100h-655z" />
    <glyph glyph-name="uniFEC8" unicode="&#x638;" horiz-adv-x="944" arabic-form="medial" 
d="M766 1183q0 -54 -37 -91q-36 -36 -88 -36q-136 0 -136 127q0 104 128 104q133 0 133 -104zM707 484q0 173 -104 173q-44 0 -96 -35.5t-108 -100.5q-42 -51 -77 -107t-58 -109h343q100 0 100 179zM974 126h-1004l1 179h131v963h172v-632q161 203 310 203q63 0 131 -41
q167 -106 167 -300q0 -55 -6.5 -104t-18.5 -89h117v-179z" />
    <glyph glyph-name="afii57433" unicode="&#x639;" horiz-adv-x="1162" arabic-form="isolated" 
d="M1049 -729h-466q-246 0 -413 146q-85 79 -127.5 177.5t-42.5 220.5q0 169 94.5 295.5t277.5 209.5q-27 52 -41.5 105t-14.5 106q0 151 103 232q94 76 246 76q138 0 297 -131l-88 -142q-150 105 -244 105q-48 0 -78.5 -25.5t-43.5 -73.5l-2 -6l-5 -15t-5 -17v-30
q0 -33 9.5 -66t26.5 -62q45 -71 107 -71h355l27 -179h-592q-58 0 -104.5 -25t-80.5 -73q-29 -45 -45.5 -99.5t-16.5 -116.5q0 -160 99 -263q99 -104 260 -104h486z" />
    <glyph glyph-name="uniFECA" unicode="&#x639;" horiz-adv-x="1060" arabic-form="final" 
d="M799 613q0 24 -31 39q-27 15 -56 15h-276q49 -52 97 -103.5t97 -103.5q81 45 125 84t44 69zM1090 126q-90 0 -155.5 4.5t-104.5 12.5q-75 13 -134.5 43t-97.5 72q-102 -45 -181 -96t-133.5 -108.5t-83 -119t-28.5 -127.5q0 -135 119 -258q107 -104 240 -104h521l16 -174
h-489q-242 0 -409 160q-170 159 -170 396q0 355 465 553q-57 56 -118 116t-118 116q29 52 59.5 109t61.5 118h380q89 0 148 -33.5t86 -96.5q16 -40 16 -70q0 -54 -16.5 -100.5t-47.5 -82.5q-23 -28 -62.5 -58t-96.5 -62q42 -15 123.5 -23t209.5 -8v-179z" />
    <glyph glyph-name="uniFECB" unicode="&#x639;" horiz-adv-x="1033" arabic-form="initial" 
d="M862 126h-892v179h250q-27 64 -41.5 121t-14.5 105q0 103 59 182q59 80 156 108q66 18 150 18q145 0 276 -130l-91 -143q-142 108 -236 108q-141 0 -141 -171q0 -71 35 -132q37 -66 110 -66h354z" />
    <glyph glyph-name="uniFECC" unicode="&#x639;" horiz-adv-x="829" arabic-form="medial" 
d="M591 611q0 22 -29 39t-52 17h-282q49 -52 96.5 -103t96.5 -103q81 42 125.5 80t44.5 70zM859 126q-81 0 -139 4.5t-92 14.5q-43 12 -95 40t-106 70q-53 -44 -109.5 -73.5t-111.5 -42.5q-16 -4 -75 -7t-161 -6v179q119 0 197 16.5t113 48.5q-61 60 -124 121t-123 121
q29 52 58.5 109t58.5 118h385q184 0 234 -128q7 -20 11.5 -39t4.5 -33q0 -108 -61 -177q-40 -45 -150 -116q105 -41 285 -41v-179z" />
    <glyph glyph-name="afii57434" unicode="&#x63a;" horiz-adv-x="1161" arabic-form="isolated" 
d="M814 1165q0 -55 -36 -90q-36 -36 -90 -36q-134 0 -134 126q0 107 130 107t130 -107zM1048 -729h-465q-243 0 -413 150q-170 156 -170 394q0 166 96.5 293t275.5 212q-28 54 -43 104.5t-15 92.5q0 149 90 236t233 87q167 0 324 -132l-88 -142q-145 105 -243 105
q-135 0 -135 -163q0 -38 8.5 -71t23.5 -62q20 -33 47.5 -51.5t62.5 -18.5h356l24 -179h-588q-57 0 -105 -25.5t-83 -73.5q-29 -45 -44.5 -100t-15.5 -115q0 -160 96 -263q98 -104 263 -104h484z" />
    <glyph glyph-name="uniFECE" unicode="&#x63a;" horiz-adv-x="1060" arabic-form="final" 
d="M790 638v-1q-31 30 -78 30h-276q49 -52 97 -103t97 -103q81 45 125 84t44 71zM780 1160q0 -54 -36 -90q-36 -37 -90 -37q-136 0 -136 127q0 105 131 105t131 -105zM1090 126l-163 6q-111 5 -194 37.5t-137 88.5q-102 -47 -181 -99.5t-133.5 -109.5t-83 -117.5
t-28.5 -124.5q0 -137 109 -249q111 -113 251 -113h522l16 -174h-489q-242 0 -408 154q-171 160 -171 395q0 380 465 560q-57 56 -118 116t-118 116q29 52 59.5 109t61.5 118h380q189 0 238 -130q12 -37 12 -70q0 -12 -2.5 -35.5t-6.5 -52.5q-8 -47 -62.5 -102t-150.5 -113
q86 -31 332 -31v-179z" />
    <glyph glyph-name="uniFECF" unicode="&#x63a;" horiz-adv-x="1033" arabic-form="initial" 
d="M603 1157q0 -53 -37 -89q-36 -36 -87 -36q-138 0 -138 125q0 106 131 106t131 -106zM862 126h-892v179h250q-27 58 -41.5 112.5t-14.5 104.5q0 73 23 131t68 101q45 41 104.5 63.5t128.5 22.5q174 0 317 -131l-91 -143q-147 108 -235 108q-142 0 -142 -167q0 -74 33 -131
q38 -71 112 -71h354z" />
    <glyph glyph-name="uniFED0" unicode="&#x63a;" horiz-adv-x="832" arabic-form="medial" 
d="M584 638q-14 29 -72 29h-281q49 -52 96.5 -103t96.5 -103q84 44 127 82.5t43 67.5zM513 1183q0 -53 -37 -90q-37 -36 -90 -36q-130 0 -130 126q0 105 124 105q133 0 133 -105zM862 126q-72 -1 -129.5 5t-97.5 17q-49 12 -103 39t-103 68q-68 -54 -139.5 -86t-136.5 -39
q-15 -2 -35 -3t-44 -1h-104l3 179q244 8 308 65l-71.5 71.5t-67.5 67t-59.5 58.5t-48.5 46q35 60 64 116.5t54 109.5h385q189 0 238 -128q17 -43 17 -72q0 -6 -2 -24t-5 -50q0 -3 -0.5 -6.5t-0.5 -7.5q-12 -93 -206 -205q115 -41 284 -41v-179z" />
    <glyph glyph-name="afii57441" unicode="&#x641;" horiz-adv-x="1627" arabic-form="isolated" 
d="M1259 1193q0 -54 -39 -90q-37 -34 -89 -34q-132 0 -132 124q0 106 128 106q132 0 132 -106zM979 693q0 -85 135 -87h168q0 84 -45 139q-46 64 -130 64q-128 0 -128 -116zM1455 439q0 -128 -71 -217q-76 -96 -204 -96h-925q-57 0 -105 23.5t-83 66.5q-32 40 -49.5 91
t-17.5 109v272h182v-246q0 -74 27.5 -105.5t101.5 -31.5h848q81 0 102 30v-1q5 8 10.5 35t13.5 69q-55 0 -106 1.5t-92.5 4.5t-71.5 6.5t-45 8.5q-143 49 -143 250q0 130 87 208q86 68 218 68q143 0 232 -98q42 -46 64 -107.5t24 -131.5q2 -66 2.5 -121.5t0.5 -87.5z" />
    <glyph glyph-name="uniFED2" unicode="&#x641;" horiz-adv-x="1521" arabic-form="final" 
d="M1272 1169q0 -27 -9.5 -50t-26.5 -39.5t-40 -25.5t-50 -9q-135 0 -135 124q0 105 129 105q132 0 132 -105zM1280 507q0 30 -11.5 58t-32.5 53q-22 23 -49 36t-59 13q-49 0 -92 -41q-42 -40 -42 -95q0 -50 45 -97.5t132 -89.5q54 33 81.5 74t27.5 89zM1551 126
q-152 0 -248 10.5t-134 29.5q-7 -8 -34 -14.5t-71 -11t-103 -7.5t-130 -3q-18 -1 -56.5 -1h-92.5q-32 0 -69 -0.5t-81 -0.5l-295 -2q-108 0 -176 92q-61 85 -61 198v272h179v-246q0 -137 132 -137h612q-96 111 -96 242q0 135 94 216q91 76 225 76q68 0 124 -26.5t95 -73.5
q38 -45 59 -104t21 -128q0 -57 -16 -106.5t-48 -95.5h170v-179z" />
    <glyph glyph-name="uniFED3" unicode="&#x641;" horiz-adv-x="965" arabic-form="initial" 
d="M591 606q-3 96 -44 145.5t-122 49.5q-115 0 -115 -92q0 -75 43 -92q20 -9 110 -10zM568 1211q0 -52 -37 -88q-38 -35 -90 -35q-130 0 -130 123q0 108 125 108q132 0 132 -108zM792 408q5 -116 -82 -198q-91 -84 -206 -84h-534v179h535q48 0 73 34.5t27 98.5
q-33 0 -71.5 1.5t-79.5 3.5t-83 4.5t-82 6.5q-149 52 -149 243q0 129 82 208q83 80 214 80q54 0 102 -14.5t90 -41.5q69 -44 107.5 -122t44.5 -178z" />
    <glyph glyph-name="uniFED4" unicode="&#x641;" horiz-adv-x="895" arabic-form="medial" 
d="M584 1157q0 -53 -37 -89q-36 -36 -91 -36q-130 0 -130 125q0 106 124 106q134 0 134 -106zM591 507q0 26 -12.5 55.5t-31.5 53.5q-45 51 -102 51q-58 0 -101 -41q-42 -40 -42 -97q0 -52 46.5 -99.5t132.5 -85.5q52 40 81 81.5t29 81.5zM925 126q-19 6 -104 6l-179 3
q-44 0 -86 10t-78 29q-46 -23 -173 -35.5t-335 -12.5v179h260q-98 110 -98 236q0 70 24 124.5t70 92.5q90 81 227 81q69 0 123.5 -24.5t96.5 -70.5q80 -89 80 -224q0 -122 -64 -215h236v-179z" />
    <glyph glyph-name="afii57442" unicode="&#x642;" horiz-adv-x="1319" arabic-form="isolated" 
d="M745 861q0 -25 -9 -45t-24.5 -34t-36.5 -21.5t-44 -7.5q-123 0 -123 108q0 101 114 101q123 0 123 -101zM1088 861q0 -50 -32 -79t-80 -29q-128 0 -128 108q0 101 117 101q123 0 123 -101zM839 287q45 0 77 1.5t53 3.5q0 78 -42 139q-50 59 -129 59q-125 0 -125 -99
q0 -104 166 -104zM1147 161q0 -42 -12 -141q-7 -79 -43 -148t-99 -120q-123 -102 -291 -102h-268q-199 0 -317 139q-117 132 -117 332v358h171v-367q0 -121 75 -206q77 -86 198 -86h249q127 0 203 94q71 83 77 211q-55 0 -105 2t-91.5 5t-72 7.5t-46.5 10.5q-70 26 -108 87
t-38 154q0 64 23.5 116t66.5 90q82 73 214 73q149 0 241 -104q90 -96 90 -248v-157z" />
    <glyph glyph-name="uniFED6" unicode="&#x642;" horiz-adv-x="1270" arabic-form="final" 
d="M1073 891q0 -23 -9 -42.5t-24 -34t-35 -23t-43 -8.5q-125 0 -125 108q0 96 112 96q124 0 124 -96zM731 891q0 -46 -34 -77q-32 -31 -81 -31q-126 0 -126 108q0 96 115 96q126 0 126 -96zM728 321q29 -16 250 -16q0 84 -53 140q-52 57 -134 57q-122 0 -122 -88
q0 -69 59 -93zM1300 126h-149q-2 -92 -34.5 -173t-97.5 -145q-129 -131 -319 -131h-276q-181 0 -302 139q-122 139 -122 320v372h177v-394q0 -98 104 -181q84 -72 179 -72h229q117 0 196 76q79 74 88 189q-56 0 -107 2t-93.5 5.5t-73.5 8.5t-48 11q-78 30 -118 94t-40 161
q0 63 26.5 116t73.5 91q87 73 221 73q77 0 141.5 -30.5t112.5 -87.5q40 -51 63.5 -119t25.5 -146h143v-179z" />
    <glyph glyph-name="uniFED7" unicode="&#x642;" horiz-adv-x="965" arabic-form="initial" 
d="M383 1177q0 -48 -32 -77.5t-80 -29.5q-125 0 -125 107q0 97 117 97q120 0 120 -97zM725 1177q0 -24 -9 -43.5t-24.5 -34t-36.5 -22t-44 -7.5q-124 0 -124 107q0 97 117 97q121 0 121 -97zM591 606q-3 96 -44 145.5t-122 49.5q-115 0 -115 -92q0 -75 43 -92q20 -9 110 -10
zM792 408q5 -116 -82 -198q-91 -84 -206 -84h-534v179h535q48 0 73 34.5t27 98.5q-33 0 -71.5 1.5t-79.5 3.5t-83 4.5t-82 6.5q-149 52 -149 243q0 129 82 208q83 80 214 80q54 0 102 -14.5t90 -41.5q69 -44 107.5 -122t44.5 -178z" />
    <glyph glyph-name="uniFED8" unicode="&#x642;" horiz-adv-x="895" arabic-form="medial" 
d="M716 1179q0 -46 -33 -78q-30 -29 -77 -29q-126 0 -126 107q0 97 115 97q121 0 121 -97zM376 1179q0 -47 -31.5 -77t-81.5 -30q-124 0 -124 107q0 97 114 97q123 0 123 -97zM591 507q0 26 -12.5 55.5t-31.5 53.5q-45 51 -102 51q-58 0 -101 -41q-42 -40 -42 -97
q0 -52 46.5 -99.5t132.5 -85.5q52 40 81 81.5t29 81.5zM925 126q-19 6 -104 6l-179 3q-44 0 -86 10t-78 29q-46 -23 -173 -35.5t-335 -12.5v179h260q-98 110 -98 236q0 70 24 124.5t70 92.5q90 81 227 81q69 0 123.5 -24.5t96.5 -70.5q80 -89 80 -224q0 -122 -64 -215h236
v-179z" />
    <glyph glyph-name="afii57443" unicode="&#x643;" horiz-adv-x="1471" arabic-form="isolated" 
d="M693 685q0 3 -14.5 5.5t-33.5 5.5q-15 2 -31 4.5t-29.5 6t-22.5 8.5t-9 11q0 30 14 55t38 46.5t56.5 39.5t70.5 33l16 -60q-14 -5 -29 -9.5t-29 -9.5q-20 -6 -33 -10t-13 -6q0 -12 20.5 -21t57.5 -14q80 -9 80 -46q0 -15 -14 -34.5t-39 -36.5t-58 -29t-71 -12
q-31 0 -67.5 8.5t-84.5 21.5v2q23 3 43.5 5.5t38.5 4.5q80 10 111.5 15t31.5 16zM1299 398q0 -64 -19.5 -114.5t-56.5 -85.5t-89.5 -53.5t-117.5 -18.5h-759q-53 0 -99.5 21.5t-81.5 60t-55.5 92t-20.5 116.5v272h179v-246q0 -73 29 -105t102 -32h693q83 8 106 45
q14 22 14 128v790h176v-870z" />
    <glyph glyph-name="uniFEDA" unicode="&#x643;" horiz-adv-x="1500" arabic-form="final" 
d="M693 685q0 5 -14.5 7t-34.5 4q-15 2 -31 4t-29.5 5.5t-22 8.5t-8.5 12q0 30 14 55t38 46.5t56.5 39.5t70.5 33l16 -60q-14 -5 -29 -9.5t-29 -9.5q-20 -6 -33 -10t-13 -6q0 -12 20.5 -21t57.5 -14q80 -9 80 -46q0 -15 -14 -34.5t-39 -36.5t-58 -29t-71 -12
q-31 0 -67.5 8.5t-84.5 21.5v2q23 3 43.5 5.5t38.5 4.5q80 10 111.5 15t31.5 16zM1530 126h-54q-176 0 -259 71q-30 -26 -59 -42.5t-54 -22.5q-10 -3 -32 -3.5t-55 -2.5h-760q-53 0 -99.5 21.5t-81.5 60t-55.5 92t-20.5 116.5v272h179v-246q0 -73 29 -105t103 -32h692
q42 2 66 14t37 33q19 29 19 126v790h180v-826q0 -48 15 -77.5t42 -41.5q30 -11 168 -18v-179z" />
    <glyph glyph-name="uniFEDB" unicode="&#x643;" horiz-adv-x="969" arabic-form="initial" 
d="M797 370q0 -244 -274 -244h-553v179h553q71 0 71 85q0 35 -23 58l-462 488l-27 199l653 236l24 -178l-457 -173q87 -97 182 -203t182 -203q19 -23 43.5 -57t53.5 -81q34 -58 34 -106z" />
    <glyph glyph-name="uniFEDC" unicode="&#x643;" horiz-adv-x="1037" arabic-form="medial" 
d="M1067 126q-113 0 -194 33t-129 96q-53 -129 -246 -129h-528v179h529q71 0 71 91q0 33 -19 52l-462 488l-36 199l658 236l23 -178l-463 -173q122 -134 246.5 -270.5t246.5 -270.5q39 -45 72 -77t55 -49q73 -43 176 -48v-179z" />
    <glyph glyph-name="afii57444" unicode="&#x644;" horiz-adv-x="1329" arabic-form="isolated" 
d="M1157 151q0 -200 -119 -339q-127 -135 -326 -135h-273q-175 0 -309 141q-130 137 -130 318v372h179v-394q0 -106 95 -181q89 -72 195 -72h233q106 0 188 73q87 77 87 180v1154h180v-1117z" />
    <glyph glyph-name="uniFEDE" unicode="&#x644;" horiz-adv-x="1321" arabic-form="final" 
d="M1351 126q-143 0 -200 83q-1 -222 -107 -371q-123 -161 -343 -161h-274q-182 0 -307 137q-120 136 -120 322v372h173v-394q0 -54 23.5 -102t66.5 -86q41 -33 91 -51t106 -18h232q55 0 104.5 18.5t90.5 52.5q38 37 60 85.5t22 100.5v1154h179v-837q0 -123 203 -126v-179z
" />
    <glyph glyph-name="uniFEDF" unicode="&#x644;" horiz-adv-x="559" arabic-form="initial" 
d="M387 398q0 -128 -76 -200t-207 -72h-134v179h120q84 7 107 45q14 22 14 128v790h176v-870z" />
    <glyph glyph-name="uniFEE0" unicode="&#x644;" horiz-adv-x="602" arabic-form="medial" 
d="M632 126h-54q-176 0 -259 71q-62 -55 -114 -65q-34 -6 -235 -6v179h125q85 0 112 47q20 29 20 126v790h180v-826q0 -48 15 -77.5t42 -41.5q30 -11 168 -18v-179z" />
    <glyph glyph-name="afii57445" unicode="&#x645;" horiz-adv-x="1172" arabic-form="isolated" 
d="M825 457q0 144 -28 169q-17 15 -79 24.5t-168 14.5v-249q0 -48 50 -84q41 -32 93 -32q132 0 132 157zM1000 418q0 -133 -90 -216q-88 -82 -230 -82q-67 0 -122 24.5t-100 71.5q-41 45 -63.5 103.5t-22.5 127.5v218q-4 0 -9 0.5t-8 0.5q-5 0 -9 0.5t-6 0.5q-68 0 -118 -56
q-22 -27 -34.5 -58.5t-12.5 -63.5v-812h-175v789q0 172 89 267q91 106 264 106h361q179 0 243 -130q43 -87 43 -291z" />
    <glyph glyph-name="uniFEE2" unicode="&#x645;" horiz-adv-x="1164" arabic-form="final" 
d="M823 455q0 134 -31 166q-20 19 -82 30t-165 14v-251q0 -57 45 -90q37 -28 97 -28q136 0 136 159zM1194 126q-109 0 -157 23q-29 12 -58.5 38.5t-54.5 67.5q-58 -142 -225 -142q-147 0 -239 92q-91 91 -91 242v218q-37 -2 -72 -14t-61 -35q-63 -51 -63 -127v-812h-173v789
q0 85 23 152.5t64 115.5q45 51 111.5 78t151.5 27h361q285 0 285 -416q0 -115 198 -118v-179z" />
    <glyph glyph-name="uniFEE3" unicode="&#x645;" horiz-adv-x="954" arabic-form="initial" 
d="M623 471q0 194 -151 194q-154 0 -154 -200q0 -186 154 -186q151 0 151 192zM782 460q0 -152 -77 -249q-85 -111 -233 -111q-57 0 -108 18t-94 51q-88 -37 -300 -43v179q150 0 176 29v-1q2 5 4.5 41t4.5 97q8 176 89 272t235 96q147 0 232 -118q71 -104 71 -261z" />
    <glyph glyph-name="uniFEE4" unicode="&#x645;" horiz-adv-x="909" arabic-form="medial" 
d="M618 478q0 187 -148 187q-153 0 -153 -200q0 -186 153 -186q148 0 148 199zM939 126q-90 0 -129 17q-54 24 -91 85q-79 -128 -247 -128q-64 0 -132 39q-33 20 -58 42t-42 47q-27 -99 -270 -102v179q148 0 175 29q10 17 10 137q0 163 78 260q86 108 246 108
q143 0 227 -111q72 -104 77 -257q0 -56 3 -73q6 -64 46 -79q9 -4 35.5 -7t71.5 -7v-179z" />
    <glyph glyph-name="afii57446" unicode="&#x646;" horiz-adv-x="1320" arabic-form="isolated" 
d="M647 728q0 -54 -36 -89q-37 -35 -89 -35q-133 0 -133 124q0 105 127 105q131 0 131 -105zM1148 157q0 -210 -117 -345q-123 -135 -329 -135h-275q-92 0 -167 34t-138 103q-122 137 -122 322v372h176v-394q0 -54 23 -100.5t67 -85.5q42 -34 92 -52.5t105 -18.5h229
q56 0 104.5 19t90.5 55q38 36 59.5 82.5t21.5 100.5v574h180v-531z" />
    <glyph glyph-name="uniFEE6" unicode="&#x646;" horiz-adv-x="1319" arabic-form="final" 
d="M654 728q0 -54 -36 -89q-35 -35 -87 -35q-138 0 -138 124q0 105 130 105q131 0 131 -105zM1349 126q-148 0 -197 83q-2 -223 -109 -371q-120 -161 -341 -161h-275q-180 0 -305 137q-122 137 -122 322v372h176v-394q0 -54 23.5 -102t66.5 -86q40 -33 90.5 -51t106.5 -18
h229q56 0 104.5 19t90.5 55q39 36 60.5 82.5t21.5 100.5v574h179v-257q0 -123 201 -126v-179z" />
    <glyph glyph-name="uniFEE7" unicode="&#x646;" horiz-adv-x="690" arabic-form="initial" 
d="M345 967q0 -53 -37 -91q-36 -38 -89 -38q-134 0 -134 129q0 105 127 105q133 0 133 -105zM518 416q0 -113 -71 -199q-72 -91 -187 -91h-290v179q280 0 310 12q58 20 58 161v26t-1 35q0 9 -0.5 19t-0.5 21q-1 30 -1 61.5v47.5h183v-272z" />
    <glyph glyph-name="uniFEE8" unicode="&#x646;" horiz-adv-x="710" arabic-form="medial" 
d="M354 967q0 -51 -38 -91q-38 -38 -89 -38q-136 0 -136 129q0 105 128 105q135 0 135 -105zM738 126h-60q-165 0 -247 71q-88 -71 -168 -71h-293v179q276 0 309 14q59 18 59 159v26t-1 35q0 9 -0.5 19t-0.5 21q-1 30 -1 61.5v47.5h182v-246q0 -129 221 -137v-179z" />
    <glyph glyph-name="afii57470" unicode="&#x647;" horiz-adv-x="853" arabic-form="isolated" 
d="M502 441q0 52 -27 80l-144 152q-76 -74 -117 -135t-41 -103q0 -64 51 -112q26 -22 57.5 -34t66.5 -12q65 0 109 47q45 48 45 117zM681 429q0 -66 -28.5 -125t-76.5 -104q-51 -46 -112.5 -70.5t-131.5 -24.5q-147 0 -240 100q-92 101 -92 247q0 75 52 165.5t148 188.5
q-12 14 -26 28.5t-26 28.5l123 123l330 -338q80 -86 80 -219z" />
    <glyph glyph-name="uniFEEA" unicode="&#x647;" horiz-adv-x="1045" arabic-form="final" 
d="M511 435q0 64 -33 95l-143 143l-64.5 -64.5t-38.5 -40.5q-51 -68 -51 -133q0 -67 47 -112q47 -44 114 -44q32 0 62.5 12t55.5 34q51 48 51 110zM1053 305v-178h-35q-112 0 -170 31q-11 8 -55 47.5t-125 114.5q-103 -215 -328 -215q-148 0 -244 96t-96 246q0 37 15 80
t42 89t65.5 94t84.5 96q-12 14 -25 28.5t-25 28.5l119 123l538 -567q66 -73 85 -86h-1q39 -20 120 -28h35z" />
    <glyph glyph-name="uniFEEB" unicode="&#x647;" horiz-adv-x="1254" arabic-form="initial" 
d="M542 537q0 62 -46 99q-46 38 -104 38q-47 0 -76 -38q-28 -34 -28 -87q0 -57 35.5 -99t103.5 -70q54 26 84.5 65.5t30.5 91.5zM891 352q0 100 -217 325q20 -29 30.5 -67.5t10.5 -84.5q0 -168 -107 -226q95 -55 170 -55q113 0 113 108zM1082 364q0 -57 -23.5 -111
t-65.5 -102q-44 -47 -95 -71.5t-109 -24.5q-72 0 -164.5 34.5t-202.5 100.5q-57 -28 -121.5 -43.5t-133.5 -16.5q-49 -1 -98.5 -2t-98.5 -2v179h242q-92 130 -92 244q0 126 80 209q81 82 208 82q97 0 182 -66q-23 23 -44 44.5t-43 44.5l135 123q444 -423 444 -622z" />
    <glyph glyph-name="uniFEEC" unicode="&#x647;" horiz-adv-x="844" arabic-form="medial" 
d="M531 417q-1 -33 -6.5 -55.5t-15.5 -43.5t-24 -42t-35 -48l16 -15q96 92 192 92h202v-179h-142q-38 0 -75 -12t-66 -34.5t-46.5 -53.5t-17.5 -70v-1l3 -32l45 -301l-172 -52l-51 352l-4 39q0 102 94 212l-16 14q-71 -61 -176 -61h-246v179h182q98 0 154 56q24 31 40 118
l33 311l180 -31l-48 -341v-1z" />
    <glyph glyph-name="afii57448" unicode="&#x648;" horiz-adv-x="875" arabic-form="isolated" 
d="M521 489q0 172 -138 172q-84 0 -114 -56q-8 -22 -13 -57t-5 -82q0 -110 86 -142q23 -9 73.5 -13.5t110.5 -5.5v184zM702 103q0 -90 -34.5 -165.5t-100.5 -136.5q-66 -60 -145 -92t-167 -32h-231l-24 180h226q124 0 207 74q80 71 88 195q-102 2 -187.5 17.5t-133.5 42.5
q-66 40 -100 111.5t-34 173.5q0 223 105 314q64 55 217 55q103 0 170.5 -43t101.5 -127q20 -54 31 -139t11 -200v-228z" />
    <glyph glyph-name="uniFEEE" unicode="&#x648;" horiz-adv-x="802" arabic-form="final" 
d="M529 477q0 69 -35 125q-44 59 -112 59q-82 0 -112 -56q-9 -22 -14.5 -57t-5.5 -82q0 -110 91 -142q12 -4 31 -7.5t44 -6t53.5 -4t59.5 -1.5v172zM832 126h-119q-2 -92 -36.5 -176.5t-94.5 -145.5q-65 -61 -148 -94t-180 -33h-228l-26 180h225q124 0 209 74q82 72 90 195
q-104 2 -189 17t-136 44q-67 40 -101.5 111t-34.5 173q0 222 107 314q63 54 212 54q106 0 178.5 -46t108.5 -131q20 -51 31 -145t13 -212h119v-179z" />
    <glyph glyph-name="afii57449" unicode="&#x649;" horiz-adv-x="1247" arabic-form="isolated" 
d="M1131 136q0 -131 -47 -228t-138 -158q-108 -73 -251 -73h-274q-94 0 -168 34t-134 103q-119 137 -119 322v368h169v-390q0 -115 86 -189q83 -73 200 -73h231q104 0 186 70q89 69 89 172q0 87 -118 116q-33 6 -46 6h-249v305q0 136 89 227q90 91 225 91h218l5 -168h-216
q-93 0 -129 -85q-8 -20 -13 -73.5t-7 -127.5q94 -1 168.5 -8.5t109.5 -19.5q64 -26 98.5 -81.5t34.5 -139.5z" />
    <glyph glyph-name="uniFEF0" unicode="&#x649;" horiz-adv-x="1233" arabic-form="final" 
d="M1263 126h-168q2 -21 5.5 -43.5t5.5 -43.5q0 -157 -117 -265q-115 -97 -273 -97h-274q-212 0 -332 152q-110 145 -110 362v317h181v-387q0 -63 23 -113t65 -85q41 -31 95 -48.5t115 -17.5h232q92 0 151 50q66 52 66 144q0 60 -159 73q-17 1 -69.5 1.5t-140.5 0.5l-13 179
h717v-179z" />
    <glyph glyph-name="uniFBE8" unicode="&#x649;" horiz-adv-x="773" arabic-form="initial" 
d="M606 416q0 -58 -18 -108.5t-52 -90.5q-35 -44 -82 -67.5t-101 -23.5h-383v179h324q37 0 62 7.5t40 24t21.5 42.5t6.5 63v246h182v-272z" />
    <glyph glyph-name="uniFBE9" unicode="&#x649;" horiz-adv-x="746" arabic-form="medial" 
d="M776 126q-108 -1 -165 9q-43 18 -91 62q-83 -71 -167 -71h-383v179h327q38 0 63 7.5t40 24t21.5 42.5t6.5 63v246h180v-246q0 -89 44 -115q26 -22 124 -22v-179z" />
    <glyph glyph-name="afii57450" unicode="&#x64a;" horiz-adv-x="1247" arabic-form="isolated" 
d="M510 -520q0 -24 -9 -43.5t-24.5 -33.5t-36.5 -21.5t-44 -7.5q-125 0 -125 106q0 99 115 99q124 0 124 -99zM852 -520q0 -48 -31.5 -77t-79.5 -29q-128 0 -128 106q0 99 117 99q122 0 122 -99zM1131 136q0 -131 -47 -228t-138 -158q-108 -73 -251 -73h-274q-94 0 -168 34
t-134 103q-119 137 -119 322v368h169v-390q0 -115 86 -189q83 -73 200 -73h231q104 0 186 70q89 69 89 172q0 87 -118 116q-33 6 -46 6h-249v305q0 136 89 227q90 91 225 91h218l5 -168h-216q-93 0 -129 -85q-8 -20 -13 -73.5t-7 -127.5q94 -1 168.5 -8.5t109.5 -19.5
q64 -26 98.5 -81.5t34.5 -139.5z" />
    <glyph glyph-name="uniFEF2" unicode="&#x64a;" horiz-adv-x="1233" arabic-form="final" 
d="M548 -520q0 -24 -9 -43.5t-25 -33.5t-37 -21.5t-44 -7.5q-124 0 -124 106q0 99 114 99q125 0 125 -99zM889 -520q0 -48 -31.5 -77t-80.5 -29q-127 0 -127 106q0 99 118 99q121 0 121 -99zM1263 126h-168q2 -21 5.5 -43.5t5.5 -43.5q0 -157 -117 -265q-115 -97 -273 -97
h-274q-212 0 -332 152q-110 145 -110 362v317h181v-387q0 -63 23 -113t65 -85q41 -31 95 -48.5t115 -17.5h232q92 0 151 50q66 52 66 144q0 60 -159 73q-17 1 -69.5 1.5t-140.5 0.5l-13 179h717v-179z" />
    <glyph glyph-name="uniFEF3" unicode="&#x64a;" horiz-adv-x="773" arabic-form="initial" 
d="M538 -152q0 -98 -116 -98q-125 0 -125 98q0 47 33 79q35 30 79 30q129 0 129 -109zM197 -152q0 -98 -113 -98q-129 0 -129 98q0 24 9 44t24.5 34.5t36.5 22.5t45 8q127 0 127 -109zM606 416q0 -58 -18 -108.5t-52 -90.5q-35 -44 -82 -67.5t-101 -23.5h-383v179h324
q37 0 62 7.5t40 24t21.5 42.5t6.5 63v246h182v-272z" />
    <glyph glyph-name="uniFEF4" unicode="&#x64a;" horiz-adv-x="746" arabic-form="medial" 
d="M537 -152q0 -98 -116 -98q-125 0 -125 98q0 47 33 79q35 30 79 30q129 0 129 -109zM196 -152q0 -98 -113 -98q-128 0 -128 98q0 24 9 44t24.5 34.5t36 22.5t44.5 8q127 0 127 -109zM776 126q-108 -1 -165 9q-43 18 -91 62q-83 -71 -167 -71h-383v179h327q38 0 63 7.5
t40 24t21.5 42.5t6.5 63v246h180v-246q0 -89 44 -115q26 -22 124 -22v-179z" />
    <glyph glyph-name="uni0671" unicode="&#x671;" horiz-adv-x="461" arabic-form="isolated" 
d="M322 1566q0 34 -47 34q-10 0 -30 -9.5t-41 -24.5q12 -8 28.5 -12.5t32.5 -4.5q57 0 57 17zM379 1589q0 -131 -120 -131q-24 0 -49 7.5t-44 21.5q-35 27 -43 27q-10 0 -18 -3.5t-18 -10.5q-12 -11 -20 -15.5t-17 -4.5q-14 0 -20 7.5t-6 25.5q0 21 29 56q41 46 74 46
q17 0 29 -9q50 36 85 58t48 22q23 0 41 -7.5t31 -25.5q18 -29 18 -64zM289 126h-174v1142h174v-1142z" />
    <glyph glyph-name="uniFB51" unicode="&#x671;" horiz-adv-x="461" arabic-form="final" 
d="M321 1566q0 34 -47 34q-10 0 -30 -9.5t-41 -24.5q12 -8 28.5 -12.5t32.5 -4.5q57 0 57 17zM378 1589q0 -131 -120 -131q-24 0 -49 7.5t-44 21.5q-35 27 -43 27q-10 0 -18 -3.5t-18 -10.5q-12 -11 -20 -15.5t-17 -4.5q-14 0 -20 7.5t-6 25.5q0 21 29 56q41 46 74 46
q17 0 29 -9q50 36 85 58t48 22q23 0 41 -7.5t31 -25.5q18 -29 18 -64zM491 126q-226 0 -321 89q-56 56 -56 183v842h178v-762q0 -125 41 -149q27 -16 158 -24v-179z" />
    <glyph glyph-name="afii57511" unicode="&#x679;" horiz-adv-x="1622" arabic-form="isolated" 
d="M847 958q0 67 -43 67q-33 0 -81 -57q-17 -20 -30.5 -42.5t-23.5 -43.5h137q17 0 31 23q10 16 10 53zM924 939q0 -55 -32 -93q-33 -38 -86 -38h-253l-13 74h60v392h73v-256q34 42 64 61t59 19q30 0 53 -13t40 -38t26 -52t9 -56zM1450 416q0 -113 -69 -199
q-73 -91 -187 -91h-937q-113 0 -190 90q-67 80 -67 200v272h179v-246q0 -73 29 -105t103 -32h826q74 0 104.5 32t30.5 105v246h178v-272z" />
    <glyph glyph-name="uniFB67" unicode="&#x679;" horiz-adv-x="1616" arabic-form="final" 
d="M847 958q0 67 -43 67q-33 0 -81 -57q-17 -20 -30.5 -42.5t-23.5 -43.5h137q17 0 31 23q10 16 10 53zM924 939q0 -55 -32 -93q-33 -38 -86 -38h-253l-13 74h60v392h73v-256q34 42 64 61t59 19q30 0 53 -13t40 -38t26 -52t9 -56zM1646 126q-210 0 -284 71q-88 -71 -171 -71
h-936q-113 0 -186 91q-69 86 -69 199v272h177v-246q0 -74 30.5 -105.5t106.5 -31.5h825q37 0 61.5 7.5t39.5 24t21 42.5t6 63v246h183v-246q0 -137 196 -137v-179z" />
    <glyph glyph-name="uniFB68" unicode="&#x679;" horiz-adv-x="690" arabic-form="initial" 
d="M313 958q0 67 -43 67q-34 0 -81 -57q-17 -20 -30.5 -42t-24.5 -44h138q16 0 30 23q11 17 11 53zM390 939q0 -55 -33 -93t-85 -38h-253l-14 74h61v392h72v-257q68 81 123 81q58 0 95 -51q34 -51 34 -108zM518 416q0 -113 -71 -199q-72 -91 -187 -91h-290v179q280 0 310 12
q58 20 58 161v26t-1 35q0 9 -0.5 19t-0.5 21q-1 30 -1 61.5v47.5h183v-272z" />
    <glyph glyph-name="uniFB69" unicode="&#x679;" horiz-adv-x="689" arabic-form="medial" 
d="M311 958q0 67 -44 67q-33 0 -81 -57q-33 -41 -55 -86h138q16 0 30 23q12 17 12 53zM387 939q0 -56 -32 -93q-33 -38 -86 -38h-253l-14 74h61v392h72v-257q68 81 124 81q58 0 95 -51q33 -49 33 -108zM720 126h-59q-148 0 -230 71q-86 -71 -168 -71h-293v179q274 0 310 14
q58 18 58 159v27t-1 36q0 9 -0.5 18.5t-0.5 20.5q-1 30 -1 61v47h185v-246q0 -87 59 -113q36 -16 141 -24v-179z" />
    <glyph glyph-name="afii57506" unicode="&#x67e;" horiz-adv-x="1622" arabic-form="isolated" 
d="M1049 -213q0 -97 -119 -97q-122 0 -122 97q0 23 9 43t24 35t35.5 23.5t43.5 8.5q52 0 89 -27q40 -30 40 -83zM707 -213q0 -97 -115 -97q-127 0 -127 97q0 47 33 79q34 31 82 31q49 0 86 -27q41 -30 41 -83zM868 -463q0 -99 -115 -99q-126 0 -126 99q0 107 115 107
q55 0 91 -27q35 -29 35 -80zM1450 416q0 -113 -69 -199q-73 -91 -187 -91h-937q-113 0 -190 90q-67 80 -67 200v272h179v-246q0 -73 29 -105t103 -32h826q74 0 104.5 32t30.5 105v246h178v-272z" />
    <glyph glyph-name="uniFB57" unicode="&#x67e;" horiz-adv-x="1616" arabic-form="final" 
d="M1047 -185q0 -91 -123 -91q-116 0 -116 91q0 49 30 80t80 31q129 0 129 -111zM866 -434q0 -96 -112 -96q-126 0 -126 96q0 48 32 78t81 30q52 0 90 -26q35 -30 35 -82zM706 -185q0 -91 -121 -91q-120 0 -120 91q0 49 32.5 80t81.5 31q127 0 127 -111zM1646 126
q-210 0 -284 71q-88 -71 -171 -71h-936q-113 0 -186 91q-69 86 -69 199v272h177v-246q0 -74 30.5 -105.5t106.5 -31.5h825q37 0 61.5 7.5t39.5 24t21 42.5t6 63v246h183v-246q0 -137 196 -137v-179z" />
    <glyph glyph-name="uniFB58" unicode="&#x67e;" horiz-adv-x="777" arabic-form="initial" 
d="M538 -152q0 -98 -116 -98q-125 0 -125 98q0 47 33 79q35 30 79 30q129 0 129 -109zM197 -152q0 -98 -113 -98q-129 0 -129 98q0 24 9 44t24.5 34.5t36.5 22.5t45 8q127 0 127 -109zM362 -404q0 -96 -115 -96q-126 0 -126 96q0 110 110 110q54 0 91 -25q40 -34 40 -85z
M608 416q0 -58 -18.5 -108.5t-52.5 -90.5q-35 -44 -82 -67.5t-101 -23.5h-384v179h327q72 0 100 31.5t28 105.5v246h183v-272z" />
    <glyph glyph-name="uniFB59" unicode="&#x67e;" horiz-adv-x="750" arabic-form="medial" 
d="M537 -152q0 -98 -116 -98q-125 0 -125 98q0 47 33 79q35 30 79 30q129 0 129 -109zM196 -152q0 -98 -113 -98q-128 0 -128 98q0 24 9 44t24.5 34.5t36 22.5t44.5 8q127 0 127 -109zM361 -404q0 -96 -115 -96q-126 0 -126 96q0 110 110 110q54 0 91 -25q40 -34 40 -85z
M778 126q-110 -1 -164 9q-46 21 -92 62q-85 -71 -167 -71h-385v179h330q72 0 100.5 31.5t28.5 105.5v246h182v-246q0 -89 40 -113q30 -24 127 -24v-179z" />
    <glyph glyph-name="afii57507" unicode="&#x686;" horiz-adv-x="1133" arabic-form="isolated" 
d="M970 -92q0 -97 -123 -97q-117 0 -117 97q0 48 31.5 77.5t81.5 29.5q51 0 85 -25q42 -32 42 -82zM626 -92q0 -97 -120 -97q-121 0 -121 97q0 48 31.5 77.5t84.5 29.5q50 0 88 -25q37 -31 37 -82zM789 -349q0 -94 -117 -94q-124 0 -124 94q0 114 110 114q55 0 90 -28
q41 -30 41 -86zM1075 -729h-487q-125 0 -231 39.5t-187 111.5q-81 77 -125.5 178.5t-44.5 223.5q0 297 260 443l542 295q-36 74 -121 88q-72 14 -471 15l-20 174h428q374 0 375 -368l-588 -328q-115 -67 -174.5 -150.5t-59.5 -180.5q0 -143 111 -254q113 -113 259 -113h517z
" />
    <glyph glyph-name="uniFB7B" unicode="&#x686;" horiz-adv-x="1058" arabic-form="final" 
d="M190 667q2 1 6 1h15v-1h-21zM601 -92q0 -97 -123 -97q-118 0 -118 97q0 48 30.5 77.5t79.5 29.5q53 0 90 -25q41 -32 41 -82zM940 -92q0 -97 -117 -97q-124 0 -124 97q0 24 9 43.5t25 34t37.5 22t45.5 7.5q48 0 85 -25q39 -32 39 -82zM758 -349q0 -94 -114 -94
q-125 0 -125 94q0 114 110 114q52 0 90 -28q39 -30 39 -86zM1088 126q-161 6 -225 37q-71 45 -85 88l-6 22t-7 24q-2 9 -4 17.5t-5 18.5q-85 -46 -174.5 -95t-174.5 -95q-115 -66 -175 -150t-60 -181q0 -143 111 -254q113 -113 257 -113h519l14 -174h-485q-254 0 -418 151
q-170 155 -170 402q0 295 261 443l543 295q-19 26 -56 46t-88 34t-113.5 21.5t-133.5 7.5q-153 -3 -202 -3q-5 42 -10.5 85.5t-10.5 85.5h432q371 0 371 -368l-159 -92q22 -53 110 -67q25 -7 144 -7v-179z" />
    <glyph glyph-name="uniFB7C" unicode="&#x686;" horiz-adv-x="1116" arabic-form="initial" 
d="M685 -185q0 -91 -118 -91q-120 0 -120 91q0 49 32 80t83 31q123 0 123 -111zM349 -185q0 -91 -124 -91q-117 0 -117 91q0 49 31 80t79 31q55 0 92 -25q39 -33 39 -86zM511 -434q0 -96 -116 -96q-127 0 -127 96q0 108 112 108q51 0 89 -26q42 -30 42 -82zM592 239
q-72 -41 -149.5 -66t-153.5 -34q-41 -7 -121 -10t-198 -3v179q174 0 294.5 17t190.5 50h-1q-2 0 18 10.5t53 27.5q13 7 28.5 15t32.5 17h-1q23 14 56 31.5t74 40.5q20 11 42 23t45 25q-17 34 -46.5 57.5t-68.5 33.5q-35 8 -154 8l-316 4l-24 174h440q363 0 363 -368z" />
    <glyph glyph-name="uniFB7D" unicode="&#x686;" horiz-adv-x="1029" arabic-form="medial" 
d="M711 -185q0 -94 -114 -94q-128 0 -128 94q0 24 9 44.5t24.5 35t37 23t45.5 8.5q50 0 88 -29q38 -30 38 -82zM369 -185q0 -94 -114 -94q-126 0 -126 94q0 24 9 44.5t24 35t36 23t45 8.5q126 0 126 -111zM534 -434q0 -96 -117 -96q-125 0 -125 96q0 107 113 107
q129 0 129 -107zM1059 126q-126 3 -194.5 33.5t-83.5 87.5q-6 20 -12 41.5t-11 44.5q-57 -33 -112.5 -62t-104.5 -52t-89 -39.5t-67 -23.5q-54 -14 -158.5 -22t-256.5 -8v179q343 0 485 67q31 15 347 190q-17 32 -47 56t-68 35q-35 8 -154 8l-316 4l-24 174h440
q363 0 363 -368l-162 -91q2 -36 57.5 -55.5t167.5 -19.5v-179z" />
    <glyph glyph-name="afii57512" unicode="&#x688;" horiz-adv-x="1014" arabic-form="isolated" 
d="M308 1172q0 68 -44 68q-34 0 -81 -57q-17 -20 -30.5 -42t-24.5 -45h138q17 0 32 26q10 13 10 50zM384 1153q0 -28 -9 -50.5t-23 -39.5q-34 -39 -86 -39h-252l-14 72h61v393h71v-256q69 82 124 82q58 0 95 -54q33 -48 33 -108zM841 359q0 -109 -78 -172q-76 -61 -184 -61
h-552l-27 179h565q97 0 97 70q0 17 -7 33t-19 30q-99 105 -201 212.5t-201 212.5l124 123l400 -423q41 -43 62 -94t21 -110z" />
    <glyph glyph-name="uniFB89" unicode="&#x688;" horiz-adv-x="1090" arabic-form="final" 
d="M308 1172q0 68 -44 68q-35 0 -80 -57q-17 -20 -30.5 -42t-24.5 -45h137q17 0 32 26q10 13 10 50zM384 1153q0 -28 -9 -50.5t-23 -39.5q-34 -39 -86 -39h-252l-14 72h61v393h72v-256q35 42 64.5 62t58.5 20q58 0 95 -54q33 -48 33 -108zM1120 126h-79q-51 0 -106.5 31
t-118.5 91q-41 -59 -100.5 -90.5t-135.5 -31.5h-552l-28 179h567q95 0 95 66q0 39 -27 67l-400 425l123 123l536 -567q35 -38 58 -59t36 -28q45 -27 132 -27v-179z" />
    <glyph glyph-name="afii57513" unicode="&#x691;" horiz-adv-x="717" arabic-form="isolated" 
d="M564 958q0 67 -43 67q-36 0 -81 -57q-33 -41 -55 -86h137q17 0 31 23q11 17 11 53zM639 939q0 -58 -31 -93q-32 -38 -86 -38h-252l-15 74h60v392h75v-256q34 42 64 61t58 19q57 0 93 -51q34 -51 34 -108zM542 157q0 -198 -124 -338q-127 -142 -323 -142h-238l-28 184h201
q63 0 119 16.5t102 45.5q51 35 78.5 83.5t27.5 107.5v574h185v-531z" />
    <glyph glyph-name="uniFB8D" unicode="&#x691;" horiz-adv-x="700" arabic-form="final" 
d="M564 958q0 67 -43 67q-36 0 -81 -57q-33 -41 -55 -86h137q17 0 31 23q11 17 11 53zM639 939q0 -59 -30 -93q-33 -38 -87 -38h-252l-15 74h60v392h75v-256q34 42 64 61t58 19q57 0 94 -51q33 -49 33 -108zM730 126q-130 0 -188 83q-1 -222 -113 -371q-119 -161 -340 -161
h-230l-30 180h250q54 0 103 18.5t90 52.5q41 38 64 85.5t23 100.5v574h181v-257q0 -118 190 -126v-179z" />
    <glyph glyph-name="afii57508" unicode="&#x698;" horiz-adv-x="717" arabic-form="isolated" 
d="M379 919q0 -51 -32 -82t-80 -31q-26 0 -49 8t-40.5 22.5t-27.5 35.5t-10 47q0 94 116 94q123 0 123 -94zM439 1057q-26 0 -48.5 8t-39.5 22q-38 32 -38 82q0 96 120 96q119 0 119 -91q0 -24 -8.5 -45.5t-23.5 -37.5t-35.5 -25t-45.5 -9zM727 919q0 -24 -9.5 -45
t-25.5 -37q-17 -14 -37.5 -22.5t-43.5 -8.5q-50 0 -89 31t-39 82q0 94 118 94q126 0 126 -94zM541 157q0 -197 -126 -338q-126 -142 -325 -142h-234l-27 184h201q59 0 116 17t105 45q51 35 78 83.5t27 107.5v574h185v-531z" />
    <glyph glyph-name="uniFB8B" unicode="&#x698;" horiz-adv-x="700" arabic-form="final" 
d="M532 1174q0 -48 -34 -79q-32 -29 -80 -29q-51 0 -89 29q-37 31 -37 79q0 95 113 95q127 0 127 -95zM363 924q0 -23 -9 -44t-25 -37q-17 -14 -37 -23t-42 -9q-52 0 -89 31q-38 32 -38 82q0 94 117 94q123 0 123 -94zM706 924q0 -24 -9.5 -45t-25.5 -37q-17 -14 -36 -22.5
t-41 -8.5q-25 0 -46.5 8.5t-41.5 23.5q-41 33 -41 81q0 94 116 94q125 0 125 -94zM730 126q-136 3 -188 83q-1 -222 -113 -371q-119 -161 -340 -161h-230l-30 180h250q108 0 190 75q90 77 90 182v574h181v-257q0 -126 190 -126v-179z" />
    <glyph glyph-name="afii57505" unicode="&#x6a4;" horiz-adv-x="1627" arabic-form="isolated" 
d="M1086 1184q0 -45 -33 -77q-34 -32 -80 -32q-23 0 -46 8t-40 22q-40 29 -40 79q0 99 115 99q124 0 124 -99zM1429 1184q0 -46 -35 -78q-34 -31 -80 -31q-23 0 -46 8t-40 22q-40 29 -40 79q0 99 114 99q127 0 127 -99zM1257 1436q0 -47 -36 -79q-35 -31 -81 -31
q-26 0 -48 9t-39 23q-37 28 -37 78q0 100 113 100q128 0 128 -100zM979 693q0 -85 135 -87h168q0 84 -45 139q-46 64 -130 64q-128 0 -128 -116zM1455 439q0 -128 -71 -217q-76 -96 -204 -96h-925q-57 0 -105 23.5t-83 66.5q-32 40 -49.5 91t-17.5 109v272h182v-246
q0 -74 27.5 -105.5t101.5 -31.5h848q81 0 102 30v-1q5 8 10.5 35t13.5 69q-55 0 -106 1.5t-92.5 4.5t-71.5 6.5t-45 8.5q-143 49 -143 250q0 130 87 208q86 68 218 68q143 0 232 -98q42 -46 64 -107.5t24 -131.5q2 -66 2.5 -121.5t0.5 -87.5z" />
    <glyph glyph-name="uniFB6B" unicode="&#x6a4;" horiz-adv-x="1521" arabic-form="final" 
d="M1087 1075q0 -43 -34 -76q-34 -32 -80 -32q-49 0 -86 28q-40 31 -40 80q0 99 115 99q125 0 125 -99zM1429 1075q0 -45 -35 -77q-34 -31 -80 -31q-49 0 -86 28q-40 31 -40 80q0 99 114 99q127 0 127 -99zM1257 1327q0 -47 -36 -79q-36 -30 -81 -30q-25 0 -47.5 8.5
t-39.5 22.5q-37 29 -37 78q0 100 114 100q127 0 127 -100zM1280 507q0 30 -11.5 58t-32.5 53q-22 23 -49 36t-59 13q-49 0 -92 -41q-42 -40 -42 -95q0 -50 45 -97.5t132 -89.5q54 33 81.5 74t27.5 89zM1551 126q-152 0 -248 10.5t-134 29.5q-7 -8 -34 -14.5t-71 -11
t-103 -7.5t-130 -3q-18 -1 -56.5 -1h-92.5q-32 0 -69 -0.5t-81 -0.5l-295 -2q-108 0 -176 92q-61 85 -61 198v272h179v-246q0 -137 132 -137h612q-96 111 -96 242q0 135 94 216q91 76 225 76q68 0 124 -26.5t95 -73.5q38 -45 59 -104t21 -128q0 -57 -16 -106.5t-48 -95.5
h170v-179z" />
    <glyph glyph-name="uniFB6C" unicode="&#x6a4;" horiz-adv-x="965" arabic-form="initial" 
d="M384 1184q0 -44 -33 -77q-34 -32 -79 -32q-24 0 -47 8t-40 22q-40 29 -40 79q0 99 114 99q125 0 125 -99zM555 1436q0 -23 -9.5 -43.5t-25.5 -35.5q-17 -14 -37.5 -22.5t-43.5 -8.5q-25 0 -47 9t-39 23q-38 29 -38 78q0 100 114 100q126 0 126 -100zM729 1184
q0 -46 -35 -78q-34 -31 -82 -31q-23 0 -45 8t-40 22q-40 29 -40 79q0 99 113 99q129 0 129 -99zM591 606q-3 96 -44 145.5t-122 49.5q-115 0 -115 -92q0 -75 43 -92q20 -9 110 -10zM792 408q5 -116 -82 -198q-91 -84 -206 -84h-534v179h535q48 0 73 34.5t27 98.5
q-33 0 -71.5 1.5t-79.5 3.5t-83 4.5t-82 6.5q-149 52 -149 243q0 129 82 208q83 80 214 80q54 0 102 -14.5t90 -41.5q69 -44 107.5 -122t44.5 -178z" />
    <glyph glyph-name="uniFB6D" unicode="&#x6a4;" horiz-adv-x="895" arabic-form="medial" 
d="M407 1075q0 -43 -34 -76q-34 -32 -79 -32q-49 0 -86 28q-40 31 -40 80q0 99 114 99q125 0 125 -99zM752 1075q0 -44 -36 -77q-17 -14 -37.5 -22.5t-43.5 -8.5q-48 0 -85 28q-40 31 -40 80q0 99 114 99q128 0 128 -99zM578 1327q0 -47 -36 -79q-34 -30 -80 -30
q-26 0 -48.5 8.5t-39.5 22.5q-18 14 -28 33t-10 45q0 100 115 100q127 0 127 -100zM591 507q0 26 -12.5 55.5t-31.5 53.5q-45 51 -102 51q-58 0 -101 -41q-42 -40 -42 -97q0 -52 46.5 -99.5t132.5 -85.5q52 40 81 81.5t29 81.5zM925 126q-19 6 -104 6l-179 3q-44 0 -86 10
t-78 29q-46 -23 -173 -35.5t-335 -12.5v179h260q-98 110 -98 236q0 70 24 124.5t70 92.5q90 81 227 81q69 0 123.5 -24.5t96.5 -70.5q80 -89 80 -224q0 -122 -64 -215h236v-179z" />
    <glyph glyph-name="uni06A9" unicode="&#x6a9;" horiz-adv-x="1617" arabic-form="isolated" 
d="M1445 370q0 -113 -87 -180q-37 -30 -85.5 -47t-103.5 -17h-914q-57 0 -105 23.5t-83 67.5q-32 40 -49.5 90.5t-17.5 108.5v272h179v-246q0 -73 29 -105t103 -32h850q94 0 94 85q0 36 -30 64l-464 482l-26 202l648 233l25 -178l-464 -181q102 -108 206.5 -221t206.5 -221
q40 -42 64 -93.5t24 -106.5z" />
    <glyph glyph-name="uniFB8F" unicode="&#x6a9;" horiz-adv-x="1682" arabic-form="final" 
d="M1712 126q-96 0 -171.5 35t-123.5 92q-49 -127 -229 -127h-931q-56 0 -104 23.5t-84 67.5q-33 40 -51 90.5t-18 108.5v272h179v-246q0 -36 6.5 -62t22.5 -42.5t41.5 -24.5t64.5 -8h867q86 0 86 65q0 33 -42 78l-230 244t-231 244l-34 199l657 236l25 -178l-461 -173
q121 -134 246.5 -272.5t246.5 -271.5q30 -32 62.5 -66t62.5 -66q34 -31 143 -39v-179z" />
    <glyph glyph-name="uniFB90" unicode="&#x6a9;" horiz-adv-x="969" arabic-form="initial" 
d="M797 370q0 -244 -274 -244h-553v179h553q71 0 71 85q0 35 -23 58l-462 488l-27 199l653 236l24 -178l-457 -173q87 -97 182 -203t182 -203q19 -23 43.5 -57t53.5 -81q34 -58 34 -106z" />
    <glyph glyph-name="uniFB91" unicode="&#x6a9;" horiz-adv-x="1037" arabic-form="medial" 
d="M1067 126q-113 0 -194 33t-129 96q-53 -129 -246 -129h-528v179h529q71 0 71 91q0 33 -19 52l-462 488l-36 199l658 236l23 -178l-463 -173q122 -134 246.5 -270.5t246.5 -270.5q39 -45 72 -77t55 -49q73 -43 176 -48v-179z" />
    <glyph glyph-name="uni06AD" unicode="&#x6ad;" horiz-adv-x="1471" arabic-form="isolated" 
d="M693 685q0 3 -14.5 5.5t-33.5 5.5q-15 2 -31 4.5t-29.5 6t-22.5 8.5t-9 11q0 30 14 55t38 46.5t56.5 39.5t70.5 33l16 -60q-14 -5 -29 -9.5t-29 -9.5q-20 -6 -33 -10t-13 -6q0 -12 20.5 -21t57.5 -14q80 -9 80 -46q0 -15 -14 -34.5t-39 -36.5t-58 -29t-71 -12
q-31 0 -67.5 8.5t-84.5 21.5v2q23 3 43.5 5.5t38.5 4.5q80 10 111.5 15t31.5 16zM1145 1452q0 -44 -34 -77q-32 -32 -78 -32q-49 0 -86 28q-40 31 -40 81q0 99 114 99q124 0 124 -99zM1490 1452q0 -45 -36 -78q-17 -14 -37.5 -22.5t-43.5 -8.5q-48 0 -85 28q-40 31 -40 81
q0 99 114 99q128 0 128 -99zM1316 1704q0 -47 -36 -79q-34 -30 -80 -30q-26 0 -48.5 8.5t-39.5 22.5t-27 33t-10 45q0 99 114 99q127 0 127 -99zM1299 398q0 -64 -19.5 -114.5t-56.5 -85.5t-89 -53.5t-117 -18.5h-760q-53 0 -99.5 21.5t-81.5 60t-55.5 92t-20.5 116.5v272
h179v-246q0 -73 29 -105t103 -32h692q84 8 106 45q14 22 14 128v790h176v-870z" />
    <glyph glyph-name="uniFBD4" unicode="&#x6ad;" horiz-adv-x="1500" arabic-form="final" 
d="M693 685q0 5 -14.5 7t-34.5 4q-15 2 -31 4t-29.5 5.5t-22 8.5t-8.5 12q0 30 14 55t38 46.5t56.5 39.5t70.5 33l16 -60q-14 -5 -29 -9.5t-29 -9.5q-20 -6 -33 -10t-13 -6q0 -12 20.5 -21t57.5 -14q80 -9 80 -46q0 -15 -14 -34.5t-39 -36.5t-58 -29t-71 -12
q-31 0 -67.5 8.5t-84.5 21.5v2q23 3 43.5 5.5t38.5 4.5q80 10 111.5 15t31.5 16zM1145 1452q0 -44 -33 -77q-34 -32 -79 -32q-49 0 -86 28q-40 31 -40 81q0 99 114 99q124 0 124 -99zM1490 1452q0 -45 -36 -78q-17 -14 -37.5 -22.5t-43.5 -8.5q-48 0 -85 28q-40 31 -40 81
q0 99 114 99q128 0 128 -99zM1316 1704q0 -47 -36 -79q-34 -30 -80 -30q-26 0 -48 8.5t-39 22.5q-18 14 -28 33t-10 45q0 99 114 99q127 0 127 -99zM1530 126h-54q-176 0 -259 71q-30 -26 -59 -42.5t-54 -22.5q-10 -3 -32 -3.5t-55 -2.5h-760q-53 0 -99.5 21.5t-81.5 60
t-55.5 92t-20.5 116.5v272h179v-246q0 -73 29 -105t103 -32h692q42 2 66 14t37 33q19 29 19 126v790h180v-826q0 -48 15 -77.5t42 -41.5q30 -11 168 -18v-179z" />
    <glyph glyph-name="uniFBD5" unicode="&#x6ad;" horiz-adv-x="969" arabic-form="initial" 
d="M289 1536q0 -44 -34 -77q-34 -32 -79 -32q-49 0 -86 28q-40 31 -40 81q0 99 114 99q125 0 125 -99zM634 1536q0 -45 -36 -78q-17 -14 -37.5 -22.5t-43.5 -8.5q-48 0 -85 28q-40 31 -40 81q0 99 114 99q128 0 128 -99zM460 1788q0 -47 -36 -79q-34 -30 -80 -30
q-26 0 -48.5 8.5t-39.5 22.5q-18 14 -28 33t-10 45q0 99 115 99q127 0 127 -99zM797 370q0 -244 -274 -244h-553v179h553q71 0 71 85q0 35 -23 58l-462 488l-27 199l653 236l24 -178l-457 -173q87 -97 182 -203t182 -203q19 -23 43.5 -57t53.5 -81q34 -58 34 -106z" />
    <glyph glyph-name="uniFBD6" unicode="&#x6ad;" horiz-adv-x="1037" arabic-form="medial" 
d="M289 1536q0 -44 -34 -77q-34 -32 -79 -32q-48 0 -85 28q-40 31 -40 81q0 99 113 99q125 0 125 -99zM634 1536q0 -45 -36 -78q-17 -14 -37.5 -22.5t-43.5 -8.5q-48 0 -85 28q-40 31 -40 81q0 99 114 99q128 0 128 -99zM460 1788q0 -47 -36 -79q-34 -30 -80 -30
q-26 0 -48.5 8.5t-39.5 22.5q-18 14 -28 33t-10 45q0 99 115 99q127 0 127 -99zM1067 126q-113 0 -194 33t-129 96q-53 -129 -246 -129h-528v179h529q71 0 71 91q0 33 -19 52l-462 488l-36 199l658 236l23 -178l-463 -173q122 -134 246.5 -270.5t246.5 -270.5q39 -45 72 -77
t55 -49q73 -43 176 -48v-179z" />
    <glyph glyph-name="afii57509" unicode="&#x6af;" horiz-adv-x="1617" arabic-form="isolated" 
d="M1340 1470l-621 -222l-9 70l624 223zM1445 370q0 -113 -87 -180q-37 -30 -85.5 -47t-103.5 -17h-914q-57 0 -105 23.5t-83 67.5q-32 40 -49.5 90.5t-17.5 108.5v272h179v-246q0 -73 29 -105t103 -32h850q94 0 94 85q0 36 -30 64l-464 482l-26 202l648 233l25 -178
l-464 -181q102 -108 206.5 -221t206.5 -221q40 -42 64 -93.5t24 -106.5z" />
    <glyph glyph-name="uniFB93" unicode="&#x6af;" horiz-adv-x="1682" arabic-form="final" 
d="M1341 1470l-621 -222l-9 70l626 223zM1712 126q-96 0 -171.5 35t-123.5 92q-49 -127 -229 -127h-931q-56 0 -104 23.5t-84 67.5q-33 40 -51 90.5t-18 108.5v272h179v-246q0 -36 6.5 -62t22.5 -42.5t41.5 -24.5t64.5 -8h867q86 0 86 65q0 33 -42 78l-230 244t-231 244
l-34 199l657 236l25 -178l-461 -173q121 -134 246.5 -272.5t246.5 -271.5q30 -32 62.5 -66t62.5 -66q34 -31 143 -39v-179z" />
    <glyph glyph-name="uniFB94" unicode="&#x6af;" horiz-adv-x="969" arabic-form="initial" 
d="M664 1470l-623 -222l-9 70l627 223zM797 370q0 -244 -274 -244h-553v179h553q71 0 71 85q0 35 -23 58l-462 488l-27 199l653 236l24 -178l-457 -173q87 -97 182 -203t182 -203q19 -23 43.5 -57t53.5 -81q34 -58 34 -106z" />
    <glyph glyph-name="uniFB95" unicode="&#x6af;" horiz-adv-x="1037" arabic-form="medial" 
d="M667 1470l-621 -222l-11 70l629 223zM1067 126q-113 0 -194 33t-129 96q-53 -129 -246 -129h-528v179h529q71 0 71 91q0 33 -19 52l-462 488l-36 199l658 236l23 -178l-463 -173q122 -134 246.5 -270.5t246.5 -270.5q39 -45 72 -77t55 -49q73 -43 176 -48v-179z" />
    <glyph glyph-name="afii57514" unicode="&#x6ba;" horiz-adv-x="1320" arabic-form="isolated" 
d="M1148 157q0 -210 -117 -345q-123 -135 -329 -135h-275q-92 0 -167 34t-138 103q-122 137 -122 322v372h176v-394q0 -54 23 -100.5t67 -85.5q42 -34 92 -52.5t105 -18.5h229q56 0 104.5 19t90.5 55q38 36 59.5 82.5t21.5 100.5v574h180v-531z" />
    <glyph glyph-name="uniFB9F" unicode="&#x6ba;" horiz-adv-x="1319" arabic-form="final" 
d="M1349 126q-148 0 -197 83q-2 -223 -109 -371q-120 -161 -341 -161h-275q-180 0 -305 137q-122 137 -122 322v372h176v-394q0 -54 23.5 -102t66.5 -86q40 -33 90.5 -51t106.5 -18h229q56 0 104.5 19t90.5 55q39 36 60.5 82.5t21.5 100.5v574h179v-257q0 -123 201 -126
v-179z" />
    <glyph glyph-name="uniFBAC" unicode="&#x6be;" horiz-adv-x="1254" arabic-form="initial" 
d="M542 537q0 62 -46 99q-46 38 -104 38q-47 0 -76 -38q-28 -34 -28 -87q0 -57 35.5 -99t103.5 -70q54 26 84.5 65.5t30.5 91.5zM891 352q0 100 -217 325q20 -29 30.5 -67.5t10.5 -84.5q0 -168 -107 -226q95 -55 170 -55q113 0 113 108zM1082 364q0 -57 -23.5 -111
t-65.5 -102q-44 -47 -95 -71.5t-109 -24.5q-72 0 -164.5 34.5t-202.5 100.5q-57 -28 -121.5 -43.5t-133.5 -16.5q-49 -1 -98.5 -2t-98.5 -2v179h242q-92 130 -92 244q0 126 80 209q81 82 208 82q97 0 182 -66q-23 23 -44 44.5t-43 44.5l135 123q444 -423 444 -622z" />
    <glyph glyph-name="uniFBAD" unicode="&#x6be;" horiz-adv-x="844" arabic-form="medial" 
d="M603 -78q0 103 -110 165q-46 27 -98.5 40.5t-105.5 14.5q2 -157 47 -243.5t132 -86.5q135 0 135 110zM566 553q0 118 -119 118q-168 0 -168 -226q0 -7 1.5 -41.5t5.5 -98.5q51 2 101.5 19.5t91.5 47.5q42 36 64.5 82t22.5 99zM874 126h-251q130 -89 130 -262
q0 -206 -263 -206q-321 0 -349 275l-19 193h-152v179h143q-6 90 -9 140t-3 58q0 335 331 335q137 0 218 -75q85 -75 85 -212q0 -149 -118 -246h257v-179z" />
    <glyph glyph-name="uni06C1" unicode="&#x6c1;" horiz-adv-x="853" arabic-form="isolated" 
d="M502 441q0 52 -27 80l-144 152q-76 -74 -117 -135t-41 -103q0 -64 51 -112q26 -22 57.5 -34t66.5 -12q65 0 109 47q45 48 45 117zM681 429q0 -66 -28.5 -125t-76.5 -104q-51 -46 -112.5 -70.5t-131.5 -24.5q-147 0 -240 100q-92 101 -92 247q0 75 52 165.5t148 188.5
q-12 14 -26 28.5t-26 28.5l123 123l330 -338q80 -86 80 -219z" />
    <glyph glyph-name="uniFBA7" unicode="&#x6c1;" horiz-adv-x="765" arabic-form="final" 
d="M795 126h-29q-106 0 -175 43q-47 29 -146 138q-57 78 -113 78q-93 0 -175 -224q-70 -135 -136 -172h1q-4 -4 -10 -4q-12 0 -12 20q0 61 107 326q121 295 241 294q53 0 105 -58q83 -93 137.5 -148t77.5 -75q21 -14 43.5 -23.5t43.5 -15.5h40v-179z" />
    <glyph glyph-name="uniFBA8" unicode="&#x6c1;" horiz-adv-x="1103" arabic-form="initial" 
d="M745 -342q0 -94 -116 -94q-70 0 -93 36q-16 28 -16 99q0 63 6.5 112.5t15.5 77.5q17 45 55.5 72.5t95.5 32.5v-56q-64 -4 -90 -62q-7 -15 -10.5 -43.5t-5.5 -69.5q76 -2 117 -28t41 -77zM885 226q-101 -119 -214 -119q-60 0 -122 37.5t-122 103.5q-53 -60 -111.5 -91
t-121.5 -31h-224v179h212q123 0 123 134v173h178v-187q0 -62 44 -104q45 -42 107 -42q124 0 124 111v298h173v-263q0 -64 -46 -198v-1z" />
    <glyph glyph-name="uniFBA9" unicode="&#x6c1;" horiz-adv-x="844" arabic-form="medial" 
d="M874 126h-216q95 -89 95 -262q0 -206 -281 -233q-303 27 -331 302l-19 193h-152v179h144q171 -7 176 -178q-3 -39 -3 -72q0 -228 130 -254q35 -13 67 -13q54 0 100 43q9 14 14.5 30.5t5.5 33.5q0 91 -123 229q-19 33 -29 59.5t-10 46.5q0 77 130 77q10 0 20.5 -0.5
t21.5 -1.5h260v-179z" />
    <glyph glyph-name="uni06C7" unicode="&#x6c7;" horiz-adv-x="875" arabic-form="isolated" 
d="M254 1266q0 31 -16 54q-16 25 -47 25q-36 0 -47 -23q-9 -18 -9 -60q0 -46 38 -60q9 -3 32.5 -5t48.5 -3v72zM521 489q0 172 -138 172q-84 0 -114 -56q-8 -22 -13 -57t-5 -82q0 -110 86 -142q23 -9 73.5 -13.5t110.5 -5.5v184zM386 1116h-52q-2 -39 -16.5 -75t-40.5 -62
q-27 -25 -63 -39.5t-78 -14.5h-98l-10 78h97q52 0 87.5 31.5t38.5 81.5q-43 1 -80 7.5t-59 19.5h1q-59 32 -59 122q0 47 12 81t34 53q27 24 91 24q45 0 76 -20t48 -57q8 -21 13 -63t6 -89zM702 103q0 -90 -34.5 -165.5t-100.5 -136.5q-66 -60 -145 -92t-167 -32h-231
l-24 180h226q124 0 207 74q80 71 88 195q-102 2 -187.5 17.5t-133.5 42.5q-66 40 -100 111.5t-34 173.5q0 223 105 314q64 55 217 55q103 0 170.5 -43t101.5 -127q20 -54 31 -139t11 -200v-228z" />
    <glyph glyph-name="uniFBD8" unicode="&#x6c7;" horiz-adv-x="802" arabic-form="final" 
d="M253 1266q0 31 -16 54q-16 25 -47 25q-36 0 -47 -23q-9 -18 -9 -60q0 -46 38 -60q9 -3 32.5 -5t48.5 -3v72zM529 477q0 69 -35 125q-44 59 -112 59q-82 0 -112 -56q-9 -22 -14.5 -57t-5.5 -82q0 -110 91 -142q12 -4 31 -7.5t44 -6t53.5 -4t59.5 -1.5v172zM385 1116h-52
q-2 -39 -16.5 -75t-40.5 -62q-27 -25 -63 -39.5t-78 -14.5h-97l-10 78h96q52 0 87.5 31.5t38.5 81.5q-43 1 -80 7.5t-59 19.5h1q-58 32 -58 122q0 95 45 134q27 24 91 24q45 0 76 -20t48 -57q8 -21 13 -63t6 -89zM832 126h-119q-2 -92 -36.5 -176.5t-94.5 -145.5
q-65 -61 -148 -94t-180 -33h-228l-26 180h225q124 0 209 74q82 72 90 195q-104 2 -189 17t-136 44q-67 40 -101.5 111t-34.5 173q0 222 107 314q63 54 212 54q106 0 178.5 -46t108.5 -131q20 -51 31 -145t13 -212h119v-179z" />
    <glyph glyph-name="uni06C9" unicode="&#x6c9;" horiz-adv-x="875" arabic-form="isolated" 
d="M521 489q0 172 -138 172q-84 0 -114 -56q-8 -22 -13 -57t-5 -82q0 -110 86 -142q23 -9 73.5 -13.5t110.5 -5.5v184zM681 1019h-141l-166 160l-26.5 -26.5t-27.5 -26.5q-27 -26 -55.5 -53.5t-54.5 -53.5h-144l201 301h215zM702 103q0 -90 -34.5 -165.5t-100.5 -136.5
q-66 -60 -145 -92t-167 -32h-231l-24 180h226q124 0 207 74q80 71 88 195q-102 2 -187.5 17.5t-133.5 42.5q-66 40 -100 111.5t-34 173.5q0 223 105 314q64 55 217 55q103 0 170.5 -43t101.5 -127q20 -54 31 -139t11 -200v-228z" />
    <glyph glyph-name="uniFBE3" unicode="&#x6c9;" horiz-adv-x="802" arabic-form="final" 
d="M529 477q0 69 -35 125q-44 59 -112 59q-82 0 -112 -56q-9 -22 -14.5 -57t-5.5 -82q0 -110 91 -142q12 -4 31 -7.5t44 -6t53.5 -4t59.5 -1.5v172zM680 1019h-141l-166 160l-26.5 -26.5t-27.5 -26.5q-27 -26 -55.5 -53.5t-54.5 -53.5h-144l201 301h215zM832 126h-119
q-2 -92 -36.5 -176.5t-94.5 -145.5q-65 -61 -148 -94t-180 -33h-228l-26 180h225q124 0 209 74q82 72 90 195q-104 2 -189 17t-136 44q-67 40 -101.5 111t-34.5 173q0 222 107 314q63 54 212 54q106 0 178.5 -46t108.5 -131q20 -51 31 -145t13 -212h119v-179z" />
    <glyph glyph-name="uni06CC" unicode="&#x6cc;" horiz-adv-x="1247" arabic-form="isolated" 
d="M1131 -5q0 -262 -185 -385q-109 -74 -251 -74h-274q-94 0 -168 34t-134 103q-119 137 -119 322v370h169v-387q0 -57 23 -108t63 -90q42 -32 92.5 -50t107.5 -18h231q50 0 98 17t88 47q42 38 65.5 83.5t23.5 95.5q0 85 -118 113q-17 2 -28.5 3t-17.5 1h-249v308
q0 137 89 228q90 91 225 91h218l5 -171h-216q-91 0 -129 -83q-8 -20 -13 -72.5t-7 -124.5q94 -1 168.5 -8.5t109.5 -20.5q64 -26 98.5 -82.5t34.5 -141.5z" />
    <glyph glyph-name="uniFBFD" unicode="&#x6cc;" horiz-adv-x="1233" arabic-form="final" 
d="M1263 126h-168q2 -21 5.5 -43.5t5.5 -43.5q0 -157 -117 -265q-115 -97 -273 -97h-274q-212 0 -332 152q-110 145 -110 362v317h181v-387q0 -63 23 -113t65 -85q41 -31 95 -48.5t115 -17.5h232q92 0 151 50q66 52 66 144q0 60 -159 73q-17 1 -69.5 1.5t-140.5 0.5l-13 179
h717v-179z" />
    <glyph glyph-name="uniFBFE" unicode="&#x6cc;" horiz-adv-x="773" arabic-form="initial" 
d="M538 -152q0 -98 -116 -98q-125 0 -125 98q0 47 33 79q35 30 79 30q129 0 129 -109zM197 -152q0 -98 -113 -98q-129 0 -129 98q0 24 9 44t24.5 34.5t36.5 22.5t45 8q127 0 127 -109zM606 416q0 -58 -18 -108.5t-52 -90.5q-35 -44 -82 -67.5t-101 -23.5h-383v179h324
q37 0 62 7.5t40 24t21.5 42.5t6.5 63v246h182v-272z" />
    <glyph glyph-name="uniFBFF" unicode="&#x6cc;" horiz-adv-x="746" arabic-form="medial" 
d="M537 -152q0 -98 -116 -98q-125 0 -125 98q0 47 33 79q35 30 79 30q129 0 129 -109zM196 -152q0 -98 -113 -98q-128 0 -128 98q0 24 9 44t24.5 34.5t36 22.5t44.5 8q127 0 127 -109zM776 126q-108 -1 -165 9q-43 18 -91 62q-83 -71 -167 -71h-383v179h327q38 0 63 7.5
t40 24t21.5 42.5t6.5 63v246h180v-246q0 -89 44 -115q26 -22 124 -22v-179z" />
    <glyph glyph-name="uni06D0" unicode="&#x6d0;" horiz-adv-x="1247" arabic-form="isolated" 
d="M505 -977q-96 1 -96 118q2 126 99 125q23 0 43 -9t35 -25q31 -36 31 -78q-2 -132 -112 -131zM508 -635q-97 1 -95 115q2 129 97 128q25 0 45.5 -9.5t35 -25.5t22.5 -37t8 -44q-3 -128 -113 -127zM1131 136q0 -131 -47 -228t-138 -158q-108 -73 -251 -73h-274
q-94 0 -168 34t-134 103q-119 137 -119 322v368h169v-390q0 -115 86 -189q83 -73 200 -73h231q104 0 186 70q89 69 89 172q0 87 -118 116q-33 6 -46 6h-249v305q0 136 89 227q90 91 225 91h218l5 -168h-216q-93 0 -129 -85q-8 -20 -13 -73.5t-7 -127.5q94 -1 168.5 -8.5
t109.5 -19.5q64 -26 98.5 -81.5t34.5 -139.5z" />
    <glyph glyph-name="uniFBE5" unicode="&#x6d0;" horiz-adv-x="1233" arabic-form="final" 
d="M505 -977q-96 1 -96 118q2 126 99 125q23 0 43 -9t35 -25q31 -36 31 -78q-2 -132 -112 -131zM508 -635q-97 1 -95 115q2 129 97 128q25 0 45.5 -9.5t35 -25.5t22.5 -37t8 -44q-3 -128 -113 -127zM1263 126h-168q2 -21 5.5 -43.5t5.5 -43.5q0 -157 -117 -265
q-115 -97 -273 -97h-274q-212 0 -332 152q-110 145 -110 362v317h181v-387q0 -63 23 -113t65 -85q41 -31 95 -48.5t115 -17.5h232q92 0 151 50q66 52 66 144q0 60 -159 73q-17 1 -69.5 1.5t-140.5 0.5l-13 179h717v-179z" />
    <glyph glyph-name="uniFBE6" unicode="&#x6d0;" horiz-adv-x="773" arabic-form="initial" 
d="M236 -558q-96 2 -95 118q2 127 98 125q47 0 79 -35q32 -33 30 -77q-2 -132 -112 -131zM239 -217q-95 1 -94 115q1 130 96 129q49 0 81 -35q31 -34 31 -81q-3 -129 -114 -128zM606 416q0 -58 -18 -108.5t-52 -90.5q-35 -44 -82 -67.5t-101 -23.5h-383v179h324q37 0 62 7.5
t40 24t21.5 42.5t6.5 63v246h182v-272z" />
    <glyph glyph-name="uniFBE7" unicode="&#x6d0;" horiz-adv-x="746" arabic-form="medial" 
d="M235 -558q-96 2 -95 118q2 127 98 125q47 0 79 -35q32 -33 30 -77q-2 -132 -112 -131zM238 -217q-95 1 -94 115q1 130 96 129q49 0 81 -35q31 -34 31 -81q-3 -129 -114 -128zM776 126q-108 -1 -165 9q-43 18 -91 62q-83 -71 -167 -71h-383v179h327q38 0 63 7.5t40 24
t21.5 42.5t6.5 63v246h180v-246q0 -89 44 -115q26 -22 124 -22v-179z" />
    <glyph glyph-name="afii57519" unicode="&#x6d2;" horiz-adv-x="2181" arabic-form="isolated" 
d="M273 -577q-64 1 -115 21.5t-86 57.5t-53.5 89t-18.5 116v165q0 181 68 265.5t208 84.5q60 0 116.5 29t105.5 81q31 33 61 51t56 18q17 0 31 -6.5t28 -17.5q103 -76 198.5 -116t181.5 -40h89v-181h-94q-173 0 -328 119q-23 23 -42.5 32.5t-36.5 9.5q-27 0 -51 -18t-50 -43
q-17 -16 -36 -33t-41.5 -31t-50 -23.5t-60.5 -11.5q-54 0 -87.5 -5.5t-53 -23.5t-26.5 -51.5t-7 -89.5v-153q0 -80 48 -104q19 -13 126 -13l1778 -1v-177h-1858z" />
    <glyph glyph-name="uni06D3" unicode="&#x6d3;" horiz-adv-x="2181" arabic-form="isolated" 
d="M637 803l-311 -159l-31 68l90 50q-36 26 -57.5 58.5t-21.5 70.5q0 32 11 60.5t31 50.5q23 25 50 36t59 11q14 0 38.5 -7t59.5 -21l-34 -64q-16 14 -28.5 19t-23.5 5q-88 0 -88 -90q0 -33 17.5 -51t51.5 -18q50 0 151 55zM273 -577q-64 1 -115 21.5t-86 57.5t-53.5 89
t-18.5 116v165q0 181 68 265.5t208 84.5q60 0 116.5 29t105.5 81q31 33 61 51t56 18q17 0 31 -6.5t28 -17.5q103 -76 198.5 -116t181.5 -40h89v-181h-94q-173 0 -328 119q-23 23 -42.5 32.5t-36.5 9.5q-27 0 -51 -18t-50 -43q-17 -16 -36 -33t-41.5 -31t-50 -23.5
t-60.5 -11.5q-54 0 -87.5 -5.5t-53 -23.5t-26.5 -51.5t-7 -89.5v-153q0 -80 48 -104q19 -13 126 -13l1778 -1v-177h-1858z" />
    <glyph glyph-name="uniFBAF" unicode="&#x6d2;" horiz-adv-x="2102" arabic-form="final" 
d="M273 -577q-64 1 -115 21.5t-86 57.5t-53.5 89t-18.5 116v165q0 181 68 265.5t208 84.5q60 0 116.5 29t105.5 81q31 33 61 51t56 18q32 0 59 -24h-1q262 -35 581.5 -53.5t698.5 -18.5h176v-179h-94q-24 0 -51.5 -0.5t-55.5 -0.5h-54.5h-49.5q-335 0 -609.5 8.5
t-493.5 25.5q-23 23 -42.5 32.5t-36.5 9.5q-27 0 -51 -18t-50 -43q-17 -16 -36 -33t-41.5 -31t-50 -23.5t-60.5 -11.5q-54 0 -87.5 -5.5t-53 -23.5t-26.5 -51.5t-7 -89.5v-153q0 -80 48 -104q19 -13 126 -13l1779 -3v-174z" />
    <glyph glyph-name="uniFBB1" unicode="&#x6d3;" horiz-adv-x="2102" arabic-form="final" 
d="M273 -577q-64 1 -115 21.5t-86 57.5t-53.5 89t-18.5 116v165q0 181 68 265.5t208 84.5q60 0 116.5 29t105.5 81q31 33 61 51t56 18q32 0 59 -24q262 -35 581 -53.5t698 -18.5h176v-179h-94q-24 0 -51.5 -0.5t-55.5 -0.5h-54.5h-49.5q-335 0 -609.5 8.5t-493.5 25.5
q-23 23 -42.5 32.5t-36.5 9.5q-27 0 -51 -18t-50 -43q-17 -16 -36 -33t-41.5 -31t-50 -23.5t-60.5 -11.5q-54 0 -87.5 -5.5t-53 -23.5t-26.5 -51.5t-7 -89.5v-153q0 -80 48 -104q19 -13 126 -13l1779 -3v-174zM637 803l-311 -159l-31 68l90 50q-36 26 -57.5 58.5t-21.5 70.5
q0 32 11 60.5t31 50.5q23 25 50 36t59 11q14 0 38.5 -7t59.5 -21l-34 -64q-16 14 -28.5 19t-23.5 5q-88 0 -88 -90q0 -33 17.5 -51t51.5 -18q50 0 151 55z" />
    <glyph glyph-name="uniFCF2" unicode="&#xfcf2;" horiz-adv-x="358" arabic-form="medial" 
d="M405 1470l-321 -167l-39 58l325 185zM484 1222q0 -37 -10.5 -68.5t-26.5 -51.5q-42 -50 -102 -50q-23 0 -50 13t-58 37q-45 -50 -107 -50q-31 0 -54 13t-43 39q-30 41 -30 118h65q0 -97 67 -97q69 0 72 97h69q0 -97 73 -97q67 0 67 97h68zM377 126h-400v179h400v-179z
" />
    <glyph glyph-name="uniFCF3" unicode="&#xfcf3;" horiz-adv-x="358" arabic-form="medial" 
d="M305 1470q0 12 -5.5 25t-16.5 23q-22 18 -51 18q-69 0 -69 -72q0 -67 77 -67q8 0 19 6t23 19q13 14 18 26.5t5 21.5zM460 1114q0 -77 -36 -118q-40 -48 -102 -48q-48 0 -106 49q-23 -22 -51.5 -35.5t-56.5 -13.5q-31 0 -55.5 12t-44.5 38q-14 22 -22 51.5t-8 64.5h66
q0 -95 70 -95q65 0 68 95h70q0 -48 18.5 -71.5t52.5 -23.5q68 0 69 95h68zM372 1470q0 -47 -14 -77.5t-39 -45.5q-50 -26 -106 -56t-106 -57q-5 -2 -9.5 -5t-9.5 -5l-35 64l115 65q-65 44 -65 110q0 45 24.5 78.5t66.5 51.5q13 5 23 8.5t15 3.5q59 0 98 -40q23 -21 32.5 -44
t9.5 -51zM377 126h-400v179h400v-179z" />
    <glyph glyph-name="uniFCF4" unicode="&#xfcf4;" horiz-adv-x="358" arabic-form="medial" 
d="M401 1107l-323 -175l-38 63l324 181zM472 1418q0 -76 -33 -120q-23 -23 -48 -33.5t-57 -10.5q-23 0 -49 11t-57 37q-48 -48 -106 -48q-31 0 -55.5 11.5t-40.5 34.5q-33 47 -33 118h65q0 -98 67 -98q69 0 70 98h73q0 -98 68 -98q69 0 69 98h67zM377 126h-400v179h400v-179
z" />
    <glyph glyph-name="uniFDFC" unicode="&#xfdfc;" horiz-adv-x="1390" arabic-form="isolated" 
d="M233 902h122q38 0 70.5 10t55.5 29q50 36 50 93q0 60 -43.5 91.5t-130.5 31.5h-124v-255zM770 423h-170l-269 370h-98v-370h-133v842h272q137 0 216 -59q82 -59 82 -166q0 -82 -60 -141q-28 -29 -61 -48.5t-78 -30.5zM1290 151q0 -202 -118 -339q-127 -135 -325 -135
h-112q-176 0 -310 141q-127 137 -127 318v372h177v-394q0 -106 95 -181q90 -72 197 -72h69q107 0 187 73q87 77 87 180v1154h180v-1117z" />
    <glyph glyph-name="uniFE71" unicode="&#xfe71;" horiz-adv-x="358" arabic-form="medial" 
d="M351 1048l-325 -175l-38 64l327 178zM351 1215l-325 -179l-38 70l328 176zM377 126h-400v179h400v-179z" />
    <glyph glyph-name="uniFE77" unicode="&#xfe77;" horiz-adv-x="358" arabic-form="medial" 
d="M351 1156l-326 -173l-37 65l326 177zM377 126h-400v179h400v-179z" />
    <glyph glyph-name="uniFE79" unicode="&#xfe79;" horiz-adv-x="358" arabic-form="medial" 
d="M246 1094q0 26 -23.5 45t-53.5 19q-67 0 -67 -71q0 -33 18.5 -51t53.5 -18q11 0 23.5 7.5t23.5 21.5q12 14 18.5 25t6.5 22zM311 1092q0 -90 -54 -122l-231 -120l-39 59l117 66q-31 23 -47.5 51t-16.5 61q0 45 23.5 78t70.5 51q12 5 21.5 7.5t13.5 2.5q28 0 53 -11
t46 -28q20 -20 31.5 -44t11.5 -51zM377 126h-400v179h400v-179z" />
    <glyph glyph-name="uniFE7B" unicode="&#xfe7b;" horiz-adv-x="358" arabic-form="medial" 
d="M247 -379l-324 -174l-38 65l323 177zM377 126h-400v179h400v-179z" />
    <glyph glyph-name="uniFE7D" unicode="&#xfe7d;" horiz-adv-x="358" arabic-form="medial" 
d="M485 1218q0 -38 -10.5 -67t-27.5 -49q-20 -25 -45 -38.5t-55 -13.5q-23 0 -50.5 13.5t-56.5 36.5q-46 -50 -109 -50q-30 0 -54 14.5t-43 40.5q-28 40 -28 113h62q0 -97 69 -97q67 0 70 97h69q0 -97 73 -97q32 0 50.5 24t19.5 73h66zM377 126h-400v179h400v-179z" />
    <glyph glyph-name="uniFE7F" unicode="&#xfe7f;" horiz-adv-x="358" arabic-form="medial" 
d="M194 1092q0 26 -14 44.5t-37 27.5q-2 1 -4.5 1t-4.5 1q-6 2 -9 2q-28 0 -52 -22q-22 -27 -22 -54q0 -28 22.5 -49t51.5 -21q26 0 46 23q13 11 18 22.5t5 24.5zM262 1090q0 -27 -12.5 -52t-32.5 -43q-20 -17 -43.5 -26t-50.5 -9q-58 0 -96 42q-17 22 -27 46.5t-10 50.5
q0 30 11.5 53.5t31.5 41.5q22 17 45 26.5t52 9.5t54 -11.5t43 -30.5q17 -20 26 -44.5t9 -53.5zM377 126h-400v179h400v-179z" />
    <glyph glyph-name="uniFC5E" unicode="&#xfc5e;" arabic-form="isolated" 
d="M357 1988q0 14 -6.5 26t-16.5 21t-22.5 14t-25.5 5q-72 0 -72 -75q0 -63 76 -63q20 0 42 24q25 24 25 48zM450 1587q0 -76 -36 -120q-41 -46 -102 -46q-23 0 -52 14.5t-56 34.5q-23 -22 -49.5 -35.5t-55.5 -13.5q-32 0 -56 11.5t-43 34.5q-15 25 -22.5 54t-7.5 66h63
q0 -48 17 -73.5t51 -25.5t51.5 25.5t17.5 73.5h74q0 -48 17.5 -73.5t51.5 -25.5q33 0 50.5 25.5t19.5 73.5h67zM421 1987q0 -46 -12.5 -75.5t-34.5 -43.5q-69 -36 -145.5 -77.5t-142.5 -78.5l-37 65q25 14 41 26t21 22q-2 22 -34 22q-11 0 -22.5 -3.5t-25.5 -12.5l-33 58
q34 12 58.5 17t41.5 5q57 0 75 -72q6 3 13 7.5t13 7.5l10 6t13 7q-34 24 -51.5 51t-17.5 59q0 97 93 135l15 3q18 5 27 5q25 0 49 -11t44 -29q42 -39 42 -93z" />
    <glyph glyph-name="uniFC5F" unicode="&#xfc5f;" arabic-form="isolated" 
d="M384 1534l-322 -170l-38 62l326 179zM384 1711l-323 -173l-37 63l326 182zM471 2019q0 -75 -35 -119q-41 -50 -103 -50q-46 0 -107 52q-45 -52 -107 -52q-60 0 -97 53q-15 23 -23.5 52t-8.5 64h68q0 -95 67 -95t71 95h69q0 -95 70 -95t70 95h66z" />
    <glyph glyph-name="uniFC60" unicode="&#xfc60;" arabic-form="isolated" 
d="M382 1846l-321 -167l-39 59l323 184zM448 1583q0 -38 -10 -69t-27 -51q-20 -25 -45.5 -38.5t-55.5 -13.5q-46 0 -107 52q-49 -52 -108 -52q-58 0 -97 53q-29 43 -29 119h65q0 -98 68 -98q67 0 70 98h69q0 -98 72 -98q68 0 68 98h67z" />
    <glyph glyph-name="uniFC61" unicode="&#xfc61;" arabic-form="isolated" 
d="M275 1899q0 12 -5.5 24t-17.5 22t-24.5 15t-27.5 5q-68 0 -68 -75q0 -65 76 -65q9 0 20 5t22 19q14 14 19.5 26.5t5.5 23.5zM430 1571q0 -37 -8 -67.5t-27 -53.5q-37 -45 -102 -45q-22 0 -49.5 12.5t-56.5 33.5q-22 -20 -50 -33t-57 -13q-60 0 -99 46q-14 26 -22 55.5
t-8 64.5h64q0 -48 17.5 -73.5t52.5 -25.5q33 0 50 25.5t19 73.5h71q0 -48 17.5 -73.5t52.5 -25.5q33 0 50 25.5t18 73.5h67zM340 1897q0 -46 -13.5 -75.5t-36.5 -43.5q-12 -6 -26 -13.5t-27 -14.5q-45 -24 -92.5 -49.5t-88.5 -48.5l-34 65l114 64q-65 42 -65 109
q0 47 24.5 80t66.5 50q14 5 23.5 8.5t14.5 3.5q61 0 98 -40q23 -20 32.5 -43t9.5 -52z" />
    <glyph glyph-name="uniFC62" unicode="&#xfc62;" arabic-form="isolated" 
d="M381 1546l-323 -176l-38 62l324 182zM450 1843q0 -77 -33 -120q-40 -45 -104 -45q-44 0 -106 48q-24 -23 -51 -35.5t-56 -12.5q-61 0 -96 46q-16 23 -24.5 52.5t-8.5 66.5h65q0 -99 68 -99q69 0 70 99h72q0 -50 18 -74.5t51 -24.5q69 0 69 99h66z" />
    <glyph glyph-name="uniFC63" unicode="&#xfc63;" arabic-form="isolated" 
d="M231 1644h-65v271h65v-271zM439 1569q0 -37 -10 -66t-28 -52q-20 -23 -45.5 -37t-56.5 -14q-20 0 -48 13t-57 36q-23 -26 -50 -37.5t-58 -11.5q-62 0 -98 54q-28 47 -28 115h63q0 -98 68 -98q32 0 50.5 25t20.5 73h69q0 -98 70 -98q36 0 53 25t18 73h67z" />
    <glyph glyph-name=".notdef" horiz-adv-x="1122" 
d="M624 299q0 -30 -22 -52.5t-54 -22.5q-30 0 -51.5 22.5t-21.5 52.5q0 32 21.5 53.5t54.5 21.5q30 0 51.5 -21.5t21.5 -53.5zM732 780q0 -43 -23.5 -70t-60.5 -27q-32 0 -51 18.5t-19 47.5q0 26 15.5 43.5t29.5 28.5q8 6 14 11.5t6 10.5q0 20 -19.5 32t-49.5 12
q-38 0 -62 -21t-24 -53q0 -13 6.5 -32t15.5 -38.5t19 -38t17 -32.5q5 -10 8.5 -16t4.5 -8q11 -29 17.5 -64.5t6.5 -70.5q0 -21 -1.5 -42.5t-3.5 -46.5h-39v18l4 30q0 33 -45 72q-73 65 -82 76q-45 53 -45 120q0 41 15 75.5t40.5 60t60 39.5t73.5 14q35 0 66.5 -10.5t55 -30
t37 -47t13.5 -61.5zM132 31h860v1091h-860v-1091zM100 0v1154h922v-1154h-922z" />
    <glyph glyph-name="uni0000" horiz-adv-x="0" 
 />
    <glyph glyph-name="uni0000" horiz-adv-x="0" 
 />
    <glyph glyph-name="nonmarkingreturn" unicode="&#xd;" horiz-adv-x="569" 
 />
    <glyph glyph-name="space" unicode=" " horiz-adv-x="425" 
 />
    <glyph glyph-name="exclam" unicode="!" horiz-adv-x="712" 
d="M462 248q0 -122 -137 -122q-125 0 -125 122q0 107 135 107q127 0 127 -107zM416 878q0 -6 -3 -40.5t-10 -94.5q-7 -66 -13.5 -134.5t-13.5 -134.5h-94l-43 404v390h177v-390z" />
    <glyph glyph-name="quotedbl" unicode="&#x22;" horiz-adv-x="727" 
d="M286 1469l-29 -589h-123l-31 589h183zM629 1469l-30 -589h-123l-31 589h184z" />
    <glyph glyph-name="numbersign" unicode="#" horiz-adv-x="1139" 
d="M629 562q23 85 47.5 171t47.5 171h-219q-23 -85 -46 -171t-46 -171h216zM30 562h232q23 85 47 171t47 171h-231l31 118h231q29 108 59.5 223.5t59.5 223.5h151l-121 -447h219q14 51 29.5 108t32 115.5t32 115.5t29.5 108h148l-120 -447h231l-31 -118h-231
q-23 -85 -47.5 -171t-47.5 -171h232l-31 -118h-229q-14 -50 -29.5 -107t-32 -115t-32 -114.5t-29.5 -107.5h-149l121 444h-221q-14 -52 -29 -108t-30.5 -113.5t-30.5 -114t-29 -108.5h-150l120 444h-231z" />
    <glyph glyph-name="dollar" unicode="$" horiz-adv-x="1139" 
d="M513 1304q-63 -3 -110 -22.5t-75 -57.5q-55 -74 -55 -155q0 -48 17.5 -86.5t49 -67t75.5 -48t98 -30.5v467zM846 230q34 59 34 138q0 124 -92 189q-26 19 -71 37t-105 35v-523q85 5 143.5 35.5t90.5 88.5zM515 1588h97v-131q98 -8 174 -39t129 -81.5t81.5 -119
t31.5 -152.5h-176q-8 76 -41 130q-31 50 -81.5 76.5t-117.5 29.5v-483q115 -32 195 -63t119 -59q135 -94 135 -279q0 -265 -172 -378q-46 -29 -119 -50t-158 -32v-194h-97v194q-140 11 -241.5 63.5t-152.5 143.5q-27 50 -42 119t-15 154h178q8 -135 43 -200q15 -24 39.5 -45
t54.5 -37.5t64.5 -27.5t69.5 -16v542q-211 42 -316 138.5t-105 265.5q0 153 111 274q54 60 134 91t178 33v133z" />
    <glyph glyph-name="percent" unicode="%" horiz-adv-x="1821" 
d="M1600 349q0 83 -61 143q-60 61 -144 61q-85 0 -145 -61q-60 -60 -60 -143t60 -145q60 -60 145 -60q84 0 144 60q61 61 61 145zM620 1040q0 83 -61 143q-58 61 -144 61q-83 0 -145 -60q-60 -60 -60 -144q0 -83 60 -145q62 -60 145 -60q86 0 144 60q61 61 61 145z
M1251 1426h112l-802 -1464h-112zM1744 349q0 -145 -102 -247t-247 -102t-247 102t-102 247q0 144 102 246t247 102t247 -102t102 -246zM764 1040q0 -145 -102 -247t-247 -102t-247 102t-102 247q0 144 102 246q102 103 247 103t247 -103q102 -102 102 -246z" />
    <glyph glyph-name="ampersand" unicode="&#x26;" horiz-adv-x="1366" 
d="M715 1008q59 68 59 149q0 63 -43 111q-22 22 -51 34.5t-64 12.5q-109 0 -153 -74q-22 -37 -22 -82q0 -29 8.5 -58.5t24.5 -56.5q17 -27 45.5 -64.5t65.5 -79.5q47 33 79.5 60t50.5 48zM521 692q-68 -46 -115 -82.5t-67 -60.5q-66 -75 -66 -182q0 -115 84 -178
q86 -63 182 -63q111 0 190 51q39 25 69.5 53.5t52.5 59.5zM265 1137q0 143 95 236q95 94 258 94q155 0 240 -87q86 -88 86 -209q0 -140 -89 -247q-25 -29 -70.5 -66.5t-102.5 -75.5q66 -79 133 -159t133 -159q26 78 36 117q5 20 10.5 47.5t11.5 64.5h172q-16 -141 -68 -272
q-37 -94 -48 -105l260 -316h-236l-136 167q-40 -42 -78.5 -75.5t-70.5 -53.5q-119 -72 -275 -72q-229 0 -333 123q-104 125 -104 279q0 167 101 280q30 33 89 76t140 93q-45 52 -75.5 97.5t-47.5 82.5q-31 72 -31 140z" />
    <glyph glyph-name="quotesingle" unicode="'" horiz-adv-x="391" 
d="M284 1469l-33 -589h-118l-33 589h184z" />
    <glyph glyph-name="parenleft" unicode="(" horiz-adv-x="896" 
d="M571 -267q-107 81 -185.5 172t-132.5 192q-53 99 -78 204t-25 217q0 114 25 218.5t77 203.5q54 100 132.5 190t186.5 171l75 -104q-82 -75 -143 -153t-96 -153q-31 -75 -50 -170t-19 -201q0 -114 18.5 -208t53.5 -172q35 -77 93.5 -152t142.5 -150z" />
    <glyph glyph-name="parenright" unicode=")" horiz-adv-x="896" 
d="M225 1301q215 -161 318 -361q54 -99 78.5 -203.5t24.5 -218.5q0 -107 -27.5 -216.5t-76.5 -204.5q-25 -46 -59 -94.5t-74.5 -96t-87 -91.5t-96.5 -82l-75 105q85 75 145 152t93 154q32 78 50 172.5t18 203.5q0 111 -19 207t-51 171q-36 74 -97 150t-139 149z" />
    <glyph glyph-name="asterisk" unicode="*" horiz-adv-x="797" 
d="M451 1469v-223q54 19 109 38t109 38l40 -113l-217 -70q33 -46 67.5 -94t67.5 -93l-101 -73l-131 194q-33 -49 -66 -97t-66 -97l-104 73l137 187q-55 17 -109.5 35t-109.5 35l40 113l216 -78v225h118z" />
    <glyph glyph-name="plus" unicode="+" horiz-adv-x="1196" 
d="M76 437v170h435v439h173v-439h435v-170h-435v-437h-173v437h-435z" />
    <glyph glyph-name="comma" unicode="," horiz-adv-x="569" 
d="M169 -207q68 12 97 96q15 45 15 87v12.5t-2 11.5h-110v220h216v-203q0 -119 -48 -209q-48 -91 -168 -112v97z" />
    <glyph glyph-name="hyphen" unicode="-" horiz-adv-x="682" 
d="M84 664h504v-187h-504v187z" />
    <glyph glyph-name="hyphen" unicode="&#x2212;" horiz-adv-x="682" 
d="M84 664h504v-187h-504v187z" />
    <glyph glyph-name="hyphen" unicode="&#xad;" horiz-adv-x="682" 
d="M84 664h504v-187h-504v187z" />
    <glyph glyph-name="period" unicode="." horiz-adv-x="715" 
d="M465 223q0 -121 -137 -121q-128 0 -128 121q0 110 138 110q127 0 127 -110z" />
    <glyph glyph-name="slash" unicode="/" horiz-adv-x="569" 
d="M465 1469h154l-466 -1469h-154z" />
    <glyph glyph-name="zero" unicode="0" horiz-adv-x="1139" 
d="M857 711q0 244 -60 400q-60 157 -232 157q-158 0 -231.5 -149t-73.5 -439q0 -107 12.5 -196t34.5 -155q36 -96 98 -149t147 -53q140 0 222 124q83 125 83 460zM956 1202q96 -177 96 -484q0 -293 -87 -482q-124 -275 -412 -275q-258 0 -384 225q-105 188 -105 501
q0 244 63 418q117 327 427 327q278 0 402 -230z" />
    <glyph glyph-name="one" unicode="1" horiz-adv-x="1139" 
d="M195 1013v139q197 20 273 63h-1q78 46 115 211h144v-1426h-194v1013h-337z" />
    <glyph glyph-name="two" unicode="2" horiz-adv-x="1139" 
d="M591 683q63 36 109 69t72 59q82 82 82 189q0 123 -75 196q-76 74 -199 74q-91 0 -155.5 -36.5t-99.5 -102.5q-18 -38 -29 -90t-13 -118h-184q3 188 69 305q115 209 413 209q248 0 359 -133q114 -133 114 -296q0 -174 -121 -295q-32 -33 -98 -78t-153 -94
q-33 -19 -68.5 -38t-68.5 -38q-48 -26 -86 -51.5t-67 -51.5q-100 -85 -126 -190h781v-172h-983q11 188 76 323q35 69 98.5 130.5t160.5 118.5z" />
    <glyph glyph-name="three" unicode="3" horiz-adv-x="1139" 
d="M238 441q12 -139 52 -201q71 -113 252 -113q142 0 227 76q86 77 86 194q0 148 -91 206q-91 59 -250 59q-18 0 -37 -0.5t-38 -1.5v161q28 -3 47 -4t42 -1q100 0 166 32q113 56 113 199q0 105 -76 163t-176 58q-89 0 -151.5 -30.5t-96.5 -88.5q-18 -33 -29.5 -80
t-13.5 -108h-179q0 79 16.5 147.5t47.5 124.5q55 96 152.5 148.5t234.5 52.5q110 0 195.5 -24.5t144 -72.5t89 -119t30.5 -164q0 -132 -71 -215q-41 -49 -111 -79q113 -31 175 -119t62 -217q0 -205 -135 -334q-133 -129 -383 -129q-255 0 -369 139t-114 341h189z" />
    <glyph glyph-name="four" unicode="4" horiz-adv-x="1139" 
d="M676 508v643q-115 -161 -228 -321t-228 -322h456zM679 0v350h-627v177l655 909h154v-928h210v-158h-210v-350h-182z" />
    <glyph glyph-name="five" unicode="5" horiz-adv-x="1139" 
d="M254 366q18 -155 142 -212q65 -30 148 -30q160 0 236 102q77 103 77 224q0 148 -92 231q-91 82 -218 82q-93 0 -158.5 -36t-113.5 -100l-157 9l108 772h745v-176h-608q-15 -98 -30 -196.5t-30 -196.5q23 17 46.5 31t46.5 24q80 33 185 33q199 0 335 -127
q136 -128 136 -323q0 -100 -33 -191.5t-93 -166.5q-62 -75 -162.5 -115t-237.5 -40q-175 0 -311 98q-66 50 -103.5 125.5t-45.5 178.5h188z" />
    <glyph glyph-name="six" unicode="6" horiz-adv-x="1139" 
d="M868 444q0 109 -63 208q-63 100 -228 100q-114 0 -203 -77q-41 -38 -64 -97.5t-23 -133.5q0 -66 20.5 -123.5t58.5 -103.5q40 -45 95.5 -68.5t124.5 -23.5t122.5 25t88.5 70q34 48 52.5 104.5t18.5 119.5zM849 1056q-16 84 -51 132q-64 90 -196 90q-75 0 -135 -35
t-103.5 -103t-69 -167.5t-30.5 -227.5q31 45 69 77.5t86 55.5q84 40 192 40q182 0 315 -115q133 -116 133 -344q0 -195 -127 -346q-126 -150 -362 -150q-202 0 -348 152q-72 77 -108.5 204t-36.5 310q0 266 65 452q123 357 457 357q241 0 334 -125q95 -125 95 -257h-179z
" />
    <glyph glyph-name="seven" unicode="7" horiz-adv-x="1139" 
d="M1071 1408v-159q-34 -33 -81 -92.5t-102 -139.5q-57 -84 -108 -173.5t-94 -183.5q-86 -186 -132 -340q-14 -50 -33 -131t-42 -189h-201q67 409 300 816q136 238 286 409h-789v183h996z" />
    <glyph glyph-name="eight" unicode="8" horiz-adv-x="1139" 
d="M809 1057q0 78 -64 145t-194 67q-63 0 -110.5 -17.5t-76.5 -49.5q-58 -69 -58 -155q0 -100 75 -157t176 -57q116 0 185 66q67 67 67 158zM857 392q0 68 -22 121t-63 89q-87 72 -217 72q-63 0 -115.5 -19t-94.5 -55q-38 -37 -59.5 -88t-21.5 -114q0 -109 74 -192
q75 -81 230 -81q124 0 206 67q83 68 83 200zM195 837q-79 79 -79 209q0 158 115 275q115 115 330 115q102 0 183.5 -28.5t140.5 -80.5q57 -54 86.5 -117.5t29.5 -135.5q0 -135 -68 -218q-18 -22 -47.5 -45t-68.5 -46q86 -41 138 -93q95 -101 95 -261q0 -190 -127 -321
q-126 -131 -359 -131q-209 0 -355 113q-143 114 -143 330q0 127 61 219t182 142q-76 32 -114 74z" />
    <glyph glyph-name="nine" unicode="9" horiz-adv-x="1139" 
d="M828 957q0 156 -80 233q-79 78 -201 78q-64 0 -117 -23.5t-92 -65.5q-38 -45 -57.5 -103t-19.5 -131q0 -68 18 -124t50 -98q68 -82 216 -82q106 0 194 70q89 71 89 246zM273 348q7 -150 114 -206q56 -30 124 -30q63 0 118.5 28t100.5 79q90 110 128 430
q-30 -47 -67.5 -79t-80 -52t-90.5 -28.5t-99 -8.5q-208 0 -328 129t-120 333q0 194 119 343q117 148 351 148q154 0 263 -73.5t169 -209.5q31 -75 48.5 -175t17.5 -212q0 -129 -20.5 -247t-58.5 -218q-65 -166 -176.5 -252.5t-267.5 -86.5q-211 0 -319 110
q-109 109 -109 278h183z" />
    <glyph glyph-name="colon" unicode=":" horiz-adv-x="718" 
d="M464 666q0 -121 -133 -121q-131 0 -131 121q0 107 141 107q123 0 123 -107zM468 248q0 -122 -137 -122q-53 0 -91 32q-38 33 -38 90q0 107 141 107q125 0 125 -107z" />
    <glyph glyph-name="semicolon" unicode=";" horiz-adv-x="569" 
d="M226 1058h215v-220h-215v220zM226 -207q69 14 97 92q14 44 14 92q0 2 -0.5 4t-0.5 4v6t-1 9h-109v220h215v-203q0 -108 -31 -179q-52 -118 -184 -142v97z" />
    <glyph glyph-name="less" unicode="&#x3c;" horiz-adv-x="1196" 
d="M14 607l1169 458v-182l-952 -360q238 -91 476 -180t476 -180v-182l-1169 458v168z" />
    <glyph glyph-name="equal" unicode="=" horiz-adv-x="1196" 
d="M1119 823v-170h-1043v170h1043zM1119 394v-172h-1043v172h1043z" />
    <glyph glyph-name="greater" unicode="&#x3e;" horiz-adv-x="1196" 
d="M1183 437l-1169 -456v182l951 360q-238 91 -475.5 180t-475.5 180v182l1169 -458v-170z" />
    <glyph glyph-name="question" unicode="?" horiz-adv-x="1139" 
d="M492 210h201v-210h-201v210zM613 1488q197 0 316 -113q118 -113 118 -288q0 -105 -44 -172q-22 -32 -65.5 -81.5t-108.5 -112.5q-47 -46 -79 -86t-46 -71q-28 -63 -28 -191h-180q0 72 8.5 129.5t25.5 101.5q18 45 55 96t94 106q20 20 40 39.5t40 39.5q36 35 58 71
q40 64 40 133q0 47 -15.5 90.5t-43.5 78.5q-60 72 -192 72q-165 0 -230 -123q-37 -70 -41 -199h-179q0 106 32 194.5t89 153.5q61 65 145.5 98.5t190.5 33.5z" />
    <glyph glyph-name="at" unicode="@" horiz-adv-x="2079" 
d="M1093 1053q-56 0 -105.5 -34.5t-91.5 -100.5q-39 -66 -61 -133.5t-22 -132.5q0 -49 11.5 -86t31.5 -62.5t47.5 -38.5t59.5 -13q136 0 209 156q76 156 76 285q0 61 -42 110q-41 50 -113 50zM406 218q-181 208 -181 483q0 162 56 301t164 253q122 125 286 189.5t369 64.5
q356 0 560 -180q191 -170 191 -441q0 -228 -137 -391q-136 -160 -306 -160q-98 0 -146 46q-47 49 -47 116q0 8 0.5 16.5t2.5 18.5q-53 -105 -128 -151q-83 -46 -168 -46q-61 0 -112 23t-89 65q-75 90 -75 230q0 202 129 352q131 151 282 151q102 0 169 -59q65 -56 71 -135
q12 42 24 81t24 80h148l-132 -438q-14 -49 -21.5 -81.5t-7.5 -55.5q0 -44 27 -64.5t61 -20.5q113 0 203 119q91 118 91 310q0 230 -162 362q-161 133 -434 133q-378 0 -579 -222q-172 -187 -172 -473q0 -249 164 -418q192 -201 545 -201q166 0 307.5 52t262.5 143l68 -92
q-91 -81 -271 -151q-176 -70 -393 -70q-211 0 -370.5 65t-273.5 196z" />
    <glyph glyph-name="A" unicode="A" horiz-adv-x="1366" 
d="M909 603q-54 159 -111 322.5t-111 321.5q-60 -161 -118 -321.5t-118 -322.5h458zM582 1469h227l532 -1469h-220l-148 439h-579q-15 -42 -36 -100t-43 -119.5t-43 -119.5t-36 -100h-206z" />
    <glyph glyph-name="B" unicode="B" horiz-adv-x="1366" 
d="M708 849q63 0 112 9t84 26q51 28 80 77.5t29 118.5q0 143 -116 193q-65 28 -196 28h-353v-452h360zM775 172q182 0 260 106q25 34 36.5 73.5t11.5 86.5q0 159 -141 217q-75 31 -201 31h-393v-514h427zM151 1469h631q258 0 367 -154q64 -91 64 -211q0 -138 -79 -228
q-20 -22 -49.5 -44t-66.5 -41q56 -22 98 -46t69 -50q99 -96 99 -266q0 -141 -89 -257q-133 -172 -423 -172h-621v1469z" />
    <glyph glyph-name="C" unicode="C" horiz-adv-x="1479" 
d="M1183 1027q-33 141 -131 224t-275 83q-216 0 -350 -153q-132 -151 -132 -465q0 -257 119 -417q121 -160 359 -160q219 0 333 169q61 86 91 233h196q-13 -118 -56 -214.5t-116 -175.5q-175 -189 -472 -189q-257 0 -430 155q-229 205 -229 633q0 162 43.5 295.5
t128.5 237.5q93 111 221.5 168.5t291.5 57.5q280 0 433 -147q77 -74 120 -157.5t51 -177.5h-196z" />
    <glyph glyph-name="C" unicode="&#x216d;" horiz-adv-x="1479" 
d="M1183 1027q-33 141 -131 224t-275 83q-216 0 -350 -153q-132 -151 -132 -465q0 -257 119 -417q121 -160 359 -160q219 0 333 169q61 86 91 233h196q-13 -118 -56 -214.5t-116 -175.5q-175 -189 -472 -189q-257 0 -430 155q-229 205 -229 633q0 162 43.5 295.5
t128.5 237.5q93 111 221.5 168.5t291.5 57.5q280 0 433 -147q77 -74 120 -157.5t51 -177.5h-196z" />
    <glyph glyph-name="D" unicode="D" horiz-adv-x="1479" 
d="M720 172q102 0 166 21q116 40 189 150q29 43 50 100.5t34 125.5q8 41 11.5 80t3.5 74q0 272 -108 422q-108 151 -348 151h-351v-1124h353zM165 1469h595q305 0 470 -215q149 -194 149 -497q0 -115 -23 -222t-65 -200q-79 -165 -212 -250t-321 -85h-593v1469z" />
    <glyph glyph-name="D" unicode="&#x216e;" horiz-adv-x="1479" 
d="M720 172q102 0 166 21q116 40 189 150q29 43 50 100.5t34 125.5q8 41 11.5 80t3.5 74q0 272 -108 422q-108 151 -348 151h-351v-1124h353zM165 1469h595q305 0 470 -215q149 -194 149 -497q0 -115 -23 -222t-65 -200q-79 -165 -212 -250t-321 -85h-593v1469z" />
    <glyph glyph-name="E" unicode="E" horiz-adv-x="1366" 
d="M175 1469h1071v-182h-876v-443h810v-172h-810v-495h891v-177h-1086v1469z" />
    <glyph glyph-name="F" unicode="F" horiz-adv-x="1251" 
d="M175 1469h1019v-182h-819v-443h720v-177h-720v-667h-200v1469z" />
    <glyph glyph-name="G" unicode="G" horiz-adv-x="1593" 
d="M1148 1427q219 -116 269 -404h-199q-18 80 -55.5 138t-93 95.5t-126.5 55.5t-157 18q-203 0 -343 -153q-138 -153 -138 -454q0 -261 114 -425q116 -164 374 -164q198 0 328 115q64 57 97.5 150.5t35.5 220.5h-459v167h646v-787h-130l-47 187q-49 -54 -94 -91.5t-84 -60.5
q-66 -36 -149.5 -55t-183.5 -19q-264 0 -449 169q-205 211 -205 582q0 184 51 331t149 256q94 100 218.5 154t273.5 54q206 0 357 -80z" />
    <glyph glyph-name="H" unicode="H" horiz-adv-x="1479" 
d="M161 1469h203v-606h760v606h203v-1469h-203v686h-760v-686h-203v1469z" />
    <glyph glyph-name="I" unicode="I" horiz-adv-x="569" 
d="M200 1469h203v-1469h-203v1469z" />
    <glyph glyph-name="J" unicode="J" horiz-adv-x="1024" 
d="M877 438q0 -185 -55 -288q-102 -189 -388 -189q-165 0 -283 89q-116 90 -116 319v106h188v-106q0 -119 53 -179t166 -60q77 0 129 28.5t78 79.5q14 35 22 98t8 154v979h198v-1031z" />
    <glyph glyph-name="K" unicode="K" horiz-adv-x="1366" 
d="M156 1469h196v-713l713 713h278l-611 -592q155 -217 313.5 -438.5t313.5 -438.5h-261l-513 735q-58 -56 -117 -112t-116 -112v-511h-196v1469z" />
    <glyph glyph-name="K" unicode="&#x212a;" horiz-adv-x="1366" 
d="M156 1469h196v-713l713 713h278l-611 -592q155 -217 313.5 -438.5t313.5 -438.5h-261l-513 735q-58 -56 -117 -112t-116 -112v-511h-196v1469z" />
    <glyph glyph-name="L" unicode="L" horiz-adv-x="1139" 
d="M156 1469h200v-1292h743v-177h-943v1469z" />
    <glyph glyph-name="L" unicode="&#x216c;" horiz-adv-x="1139" 
d="M156 1469h200v-1292h743v-177h-943v1469z" />
    <glyph glyph-name="M" unicode="M" horiz-adv-x="1706" 
d="M151 1469h287l420 -1238q105 311 209 619t208 619h284v-1469h-191v867v38.5t1 52.5q0 11 0.5 28.5t0.5 29.5q1 51 1.5 103.5t0.5 112.5q-104 -309 -208 -616t-208 -616h-199l-419 1232v-39v-46.5t1 -61.5q0 -13 0.5 -27t0.5 -29q2 -51 2.5 -94t0.5 -68v-867h-192v1469z
" />
    <glyph glyph-name="M" unicode="&#x216f;" horiz-adv-x="1706" 
d="M151 1469h287l420 -1238q105 311 209 619t208 619h284v-1469h-191v867v38.5t1 52.5q0 11 0.5 28.5t0.5 29.5q1 51 1.5 103.5t0.5 112.5q-104 -309 -208 -616t-208 -616h-199l-419 1232v-39v-46.5t1 -61.5q0 -13 0.5 -27t0.5 -29q2 -51 2.5 -94t0.5 -68v-867h-192v1469z
" />
    <glyph glyph-name="N" unicode="N" horiz-adv-x="1479" 
d="M156 1469h236l739 -1185v1185h191v-1469h-225l-749 1184v-1184h-192v1469z" />
    <glyph glyph-name="O" unicode="O" horiz-adv-x="1593" 
d="M1306 757q0 260 -136 415q-134 158 -368 158q-228 0 -370 -157q-144 -154 -144 -459q0 -243 123 -410t399 -167q262 0 378 188q118 187 118 432zM1366 1259q73 -98 109.5 -221.5t36.5 -277.5q0 -329 -167 -547q-196 -256 -559 -256q-339 0 -533 224q-173 217 -173 546
q0 147 38.5 276t109.5 234q47 61 107.5 111t132 86t152.5 55.5t170 19.5q389 0 576 -250z" />
    <glyph glyph-name="P" unicode="P" horiz-adv-x="1366" 
d="M951 1265q-65 31 -181 31h-395v-506h395q134 0 216 57q84 57 84 200q0 159 -119 218zM175 1469h661q198 0 316 -111q120 -109 120 -310q0 -173 -107 -301q-106 -127 -329 -127h-461v-620h-200v1469z" />
    <glyph glyph-name="Q" unicode="Q" horiz-adv-x="1593" 
d="M858 304l102 124l192 -148q91 105 121 230q33 129 33 247q0 260 -136 415q-134 158 -368 158q-237 0 -375 -152q-139 -151 -139 -464q0 -265 133 -420q132 -157 390 -157q60 0 114 9t94 32zM1501 5l-102 -123l-228 174q-80 -43 -176.5 -71t-207.5 -28q-342 0 -536 224
q-171 218 -171 546q0 147 38.5 276t109.5 234q47 61 107.5 111t132 86t152.5 55.5t170 19.5q389 0 576 -250q73 -98 109.5 -221.5t36.5 -277.5q0 -141 -35 -273q-26 -99 -71 -180.5t-107 -144.5z" />
    <glyph glyph-name="R" unicode="R" horiz-adv-x="1479" 
d="M839 797q138 0 220 56q82 55 82 201q0 156 -113 212q-61 30 -163 30h-484v-499h458zM180 1469h680q169 0 277 -49q207 -94 207 -347q0 -131 -53.5 -215.5t-151.5 -135.5q82 -34 127 -91q45 -58 49 -186l7 -196q3 -82 14 -125q18 -70 64 -89v-35h-245q-10 21 -16 50
q-3 15 -5.5 44t-4.5 72l-12 244q-5 70 -31 118.5t-75 73.5q-57 27 -179 27h-451v-629h-201v1469z" />
    <glyph glyph-name="S" unicode="S" horiz-adv-x="1366" 
d="M288 475q7 -122 58 -202q51 -69 138.5 -107.5t209.5 -38.5q56 0 107.5 8.5t96.5 23.5q87 31 131.5 86.5t44.5 133.5q0 58 -19.5 101t-54.5 69q-38 24 -98.5 46.5t-138.5 40.5q-50 11 -99.5 22.5t-99.5 22.5q-97 22 -167 46.5t-109 50.5q-140 92 -140 276q0 197 137 325
q134 127 388 127q115 0 214 -28.5t178 -83.5q78 -56 120 -146.5t42 -210.5h-188q-15 114 -64 180q-47 55 -124.5 85t-183.5 30q-175 0 -252 -74t-77 -171q0 -51 23.5 -91t65.5 -65q61 -32 267 -80q51 -11 103 -23.5t103 -23.5q151 -35 230 -93q140 -104 140 -300
q0 -244 -178 -349q-175 -105 -412 -105q-275 0 -429 140q-155 140 -152 378h189z" />
    <glyph glyph-name="T" unicode="T" horiz-adv-x="1251" 
d="M1225 1469v-177h-494v-1292h-204v1292h-494v177h1192z" />
    <glyph glyph-name="U" unicode="U" horiz-adv-x="1479" 
d="M374 1469v-908q0 -162 59 -265q89 -159 299 -159q125 0 211 45.5t132 126.5q23 46 35.5 110t12.5 142v908h204v-825q0 -268 -73 -416q-68 -124 -197 -195.5t-309 -71.5t-308.5 71.5t-196.5 195.5q-73 148 -73 416v825h204z" />
    <glyph glyph-name="V" unicode="V" horiz-adv-x="1366" 
d="M274 1469l420 -1247q105 313 208 623.5t207 623.5h225l-535 -1469h-213l-534 1469h222z" />
    <glyph glyph-name="W" unicode="W" horiz-adv-x="1933" 
d="M255 1469l276 -1190q82 298 165 595t165 595h218l330 -1190q69 299 138 595t138 595h220l-386 -1469h-210l-338 1213q-85 -305 -170 -606.5t-170 -606.5h-210l-384 1469h218z" />
    <glyph glyph-name="X" unicode="X" horiz-adv-x="1366" 
d="M284 0h-243l525 753q-121 175 -246 358t-246 358h252l373 -560q91 137 185 280t185 280h240l-492 -716q59 -86 125 -182t133 -194.5t133 -194.5t125 -182h-250l-394 602z" />
    <glyph glyph-name="Y" unicode="Y" horiz-adv-x="1366" 
d="M41 1469h235l420 -703q106 177 210.5 351.5t209.5 351.5h236l-555 -878v-591h-201v591z" />
    <glyph glyph-name="Z" unicode="Z" horiz-adv-x="1251" 
d="M47 167l898 1125h-832v177h1091v-173l-903 -1119h903v-177h-1157v167z" />
    <glyph glyph-name="bracketleft" unicode="[" horiz-adv-x="777" 
d="M527 -236h-377v1505h377v-156h-204v-1194h204v-155z" />
    <glyph glyph-name="backslash" unicode="\" horiz-adv-x="569" 
d="M88 1469l570 -1469h-157l-570 1469h157z" />
    <glyph glyph-name="bracketright" unicode="]" horiz-adv-x="787" 
d="M537 -232h-387v154h214v1193h-214v154h387v-1501z" />
    <glyph glyph-name="asciicircum" unicode="^" horiz-adv-x="961" 
d="M557 1469l352 -864h-164l-265 660q-66 -165 -132 -329.5t-132 -330.5h-165l350 864h156z" />
    <glyph glyph-name="underscore" unicode="_" horiz-adv-x="1139" 
d="M0 -256v103h1139v-103h-1139z" />
    <glyph glyph-name="grave" unicode="`" horiz-adv-x="682" 
d="M465 1211h-140l-270 291h227z" />
    <glyph glyph-name="a" unicode="a" horiz-adv-x="1139" 
d="M462 119q94 0 184 44q149 74 149 237v143q-33 -20 -84.5 -34t-101.5 -20l-109 -14q-48 -7 -85.5 -17t-61.5 -24q-82 -46 -82 -148q0 -76 57 -122q28 -20 63 -32.5t71 -12.5zM706 650q61 8 82 51q12 24 12 69q0 92 -65 133t-187 41q-141 0 -199 -76q-32 -41 -43 -125h-169
q5 200 127 277q123 77 288 77q191 0 308 -71q116 -71 116 -225v-616q0 -27 11.5 -44t47.5 -17q26 0 60 6v-135q-20 -6 -36.5 -9.5t-28.5 -5.5q-22 -3 -60 -3q-93 0 -135 66q-22 33 -31 96q-53 -68 -157 -122q-104 -53 -227 -53q-151 0 -244 90q-94 91 -94 228q0 74 24 131.5
t69 99.5q45 40 107 65.5t137 35.5z" />
    <glyph glyph-name="b" unicode="b" horiz-adv-x="1139" 
d="M876 547q0 169 -73 279q-72 111 -212 111q-123 0 -215 -91q-92 -92 -92 -299q0 -74 10 -136t28 -108q36 -84 102.5 -130t161.5 -46q145 0 217 116q73 115 73 304zM118 1474h176v-529q60 77 140.5 115.5t177.5 38.5q201 0 325 -137q124 -138 124 -406q0 -253 -122 -422
q-123 -168 -342 -168q-122 0 -207 59q-50 35 -105 109v-134h-167v1474z" />
    <glyph glyph-name="c" unicode="c" horiz-adv-x="1024" 
d="M800 710q-17 100 -73 164q-57 66 -182 66q-171 0 -245 -167q-48 -109 -48 -269q0 -159 68 -269t213 -110q56 0 100 17.5t77 50.5t55.5 80.5t34.5 106.5h176q-30 -214 -149 -313q-121 -98 -308 -98q-211 0 -336 153q-124 156 -124 384q0 281 136 440q135 156 350 156
q184 0 295 -87q56 -45 90.5 -120.5t45.5 -184.5h-176z" />
    <glyph glyph-name="c" unicode="&#x217d;" horiz-adv-x="1024" 
d="M800 710q-17 100 -73 164q-57 66 -182 66q-171 0 -245 -167q-48 -109 -48 -269q0 -159 68 -269t213 -110q56 0 100 17.5t77 50.5t55.5 80.5t34.5 106.5h176q-30 -214 -149 -313q-121 -98 -308 -98q-211 0 -336 153q-124 156 -124 384q0 281 136 440q135 156 350 156
q184 0 295 -87q56 -45 90.5 -120.5t45.5 -184.5h-176z" />
    <glyph glyph-name="d" unicode="d" horiz-adv-x="1139" 
d="M553 121q124 0 204 107q81 108 81 307q0 201 -83 299t-204 98q-134 0 -220 -104q-84 -103 -84 -305q0 -171 73 -286q74 -116 233 -116zM724 1039q48 -30 107 -102v537h174v-1474h-163v146q-63 -97 -148 -140.5t-197 -43.5q-180 0 -311 150q-130 153 -130 401
q0 234 118 406q119 171 343 171q63 0 114 -12.5t93 -38.5z" />
    <glyph glyph-name="d" unicode="&#x217e;" horiz-adv-x="1139" 
d="M553 121q124 0 204 107q81 108 81 307q0 201 -83 299t-204 98q-134 0 -220 -104q-84 -103 -84 -305q0 -171 73 -286q74 -116 233 -116zM724 1039q48 -30 107 -102v537h174v-1474h-163v146q-63 -97 -148 -140.5t-197 -43.5q-180 0 -311 150q-130 153 -130 401
q0 234 118 406q119 171 343 171q63 0 114 -12.5t93 -38.5z" />
    <glyph glyph-name="e" unicode="e" horiz-adv-x="1139" 
d="M864 622q-11 115 -51 186q-73 129 -246 129q-123 0 -207 -90q-42 -44 -64 -101t-25 -124h593zM962 904q26 -38 44 -88.5t28 -101.5q8 -37 12 -97t4 -140h-784q3 -79 22.5 -144.5t54.5 -114.5q36 -47 92.5 -72.5t129.5 -25.5q69 0 125.5 24t98.5 69q48 54 68 125h178
q-4 -30 -15.5 -63t-31.5 -70q-20 -35 -42.5 -66t-44.5 -53q-38 -36 -92.5 -64t-111.5 -44q-32 -8 -69 -12t-78 -4q-201 0 -340 145q-138 146 -138 408q0 258 139 420q139 160 367 160q57 0 112.5 -13.5t108.5 -39.5q52 -27 94 -61.5t69 -76.5z" />
    <glyph glyph-name="f" unicode="f" horiz-adv-x="569" 
d="M215 1398q63 92 244 92q18 0 36 -1t41 -3v-166q-28 2 -40.5 2.5t-24.5 0.5q-80 0 -97 -42q-4 -10 -6.5 -30.5t-4.5 -49t-3.5 -63t-1.5 -71.5h178v-144h-180v-923h-180v923h-149v144h149v166q2 57 12 98t27 67z" />
    <glyph glyph-name="g" unicode="g" horiz-adv-x="1139" 
d="M543 930q-188 0 -259 -177q-37 -93 -37 -249q0 -90 19 -158.5t54.5 -115t85.5 -70.5t111 -24q95 0 163.5 44.5t108.5 129.5q19 47 31.5 108t12.5 122q0 199 -82 294q-82 96 -208 96zM731 1029q50 -34 102 -99v132h167v-974q0 -204 -60 -322q-111 -218 -423 -218
q-173 0 -292 78q-117 75 -131 243h184q14 -73 52 -111q62 -60 191 -60q103 0 170.5 37t99.5 108q17 40 26 109.5t9 166.5v27q-27 -41 -59 -70t-70 -49q-76 -40 -201 -40q-175 0 -306 123q-129 125 -129 409q0 268 130 421q131 150 319 150q127 0 221 -61z" />
    <glyph glyph-name="h" unicode="h" horiz-adv-x="1139" 
d="M132 1474h181v-544q62 77 113 111q44 27 98 41.5t120 14.5q235 0 316 -163q45 -88 45 -247v-687h-186v675q0 57 -8 101t-22 72q-26 42 -71.5 64.5t-111.5 22.5q-110 0 -202 -77q-91 -76 -91 -290v-568h-181v1474z" />
    <glyph glyph-name="i" unicode="i" horiz-adv-x="455" 
d="M131 1469h185v-206h-185v206zM131 1067h185v-1067h-185v1067z" />
    <glyph glyph-name="j" unicode="j" horiz-adv-x="455" 
d="M313 1259h-182v210h182v-210zM-39 -269q122 5 145 22q25 16 25 108v1206h182v-1225q0 -117 -38 -176q-64 -97 -240 -97q-14 0 -28.5 1t-45.5 4v157z" />
    <glyph glyph-name="k" unicode="k" horiz-adv-x="1024" 
d="M128 1469h174v-850q116 114 230 226.5t230 226.5h233l-410 -402q52 -81 106.5 -165.5t109.5 -169.5t109.5 -169.5t106.5 -165.5h-232l-333 538q-36 -33 -75 -68.5t-75 -68.5v-401h-174v1469z" />
    <glyph glyph-name="l" unicode="l" horiz-adv-x="455" 
d="M136 1469h182v-1469h-182v1469z" />
    <glyph glyph-name="l" unicode="&#x217c;" horiz-adv-x="455" 
d="M136 1469h182v-1469h-182v1469z" />
    <glyph glyph-name="m" unicode="m" horiz-adv-x="1706" 
d="M132 1072h180v-149q61 75 114 112q87 60 202 60q130 0 207 -62q42 -36 79 -105q60 85 141 126t181 41q218 0 295 -156q42 -84 42 -226v-713h-189v744q0 106 -54 146q-52 40 -128 40q-51 0 -97.5 -18.5t-84.5 -52.5q-35 -36 -55.5 -96.5t-20.5 -139.5v-623h-185v699
q0 109 -26 159q-41 74 -152 74q-101 0 -184 -79q-83 -80 -83 -285v-568h-182v1072z" />
    <glyph glyph-name="m" unicode="&#x217f;" horiz-adv-x="1706" 
d="M132 1072h180v-149q61 75 114 112q87 60 202 60q130 0 207 -62q42 -36 79 -105q60 85 141 126t181 41q218 0 295 -156q42 -84 42 -226v-713h-189v744q0 106 -54 146q-52 40 -128 40q-51 0 -97.5 -18.5t-84.5 -52.5q-35 -36 -55.5 -96.5t-20.5 -139.5v-623h-185v699
q0 109 -26 159q-41 74 -152 74q-101 0 -184 -79q-83 -80 -83 -285v-568h-182v1072z" />
    <glyph glyph-name="n" unicode="n" horiz-adv-x="1139" 
d="M132 1072h172v-150q76 93 160 133t189 40q115 0 192 -39t116 -120q44 -88 44 -249v-687h-184v675q0 48 -7.5 88t-21.5 70q-23 48 -66.5 73.5t-106.5 25.5q-66 0 -105 -13q-36 -11 -68.5 -33t-60.5 -55q-45 -53 -59 -109q-7 -28 -10 -68t-3 -93v-561h-181v1072z" />
    <glyph glyph-name="o" unicode="o" horiz-adv-x="1139" 
d="M868 553q0 72 -12.5 134.5t-35.5 109.5q-39 66 -106 106.5t-155 40.5q-164 0 -239 -126t-75 -303q0 -169 75 -283t237 -114q178 0 244 134q67 135 67 301zM1057 558q0 -128 -33 -235.5t-93 -192.5q-63 -83 -160.5 -126t-230.5 -43q-222 0 -351 149q-130 149 -130 402
q0 270 137 431q134 159 368 159q210 0 351 -137q142 -139 142 -407z" />
    <glyph glyph-name="p" unicode="p" horiz-adv-x="1139" 
d="M876 542q0 130 -37 220q-71 176 -255 176q-187 0 -255 -186q-37 -99 -37 -254q0 -124 37 -210q71 -165 255 -165q126 0 208 105q84 107 84 314zM118 1067h176v-139q26 35 56 62.5t60 47.5q45 28 99.5 43.5t115.5 15.5q183 0 310 -139q126 -139 126 -399q0 -350 -182 -500
q-116 -95 -271 -95q-61 0 -111.5 13.5t-92.5 39.5q-23 15 -50 40t-55 60v-543h-181v1493z" />
    <glyph glyph-name="q" unicode="q" horiz-adv-x="1139" 
d="M288 289q69 -166 246 -166q92 0 157 46t101 129q18 48 28.5 111t10.5 136q0 140 -43 232q-74 158 -256 158q-116 0 -200 -102q-83 -101 -83 -312q0 -137 39 -232zM739 1029q25 -18 48 -42.5t46 -59.5v145h172v-1498h-182v546q-45 -72 -123.5 -113t-198.5 -41
q-171 0 -307 134q-134 134 -134 408q0 257 125 423q127 164 329 164q68 0 123.5 -16t101.5 -50z" />
    <glyph glyph-name="r" unicode="r" horiz-adv-x="682" 
d="M136 1072h173v-180q11 26 38 58.5t63 67.5q41 37 89 57t101 20q6 0 18 -1t41 -4v-191q-16 3 -29.5 4t-30.5 1q-135 0 -208 -88q-73 -86 -73 -200v-616h-182v1072z" />
    <glyph glyph-name="s" unicode="s" horiz-adv-x="1024" 
d="M240 338q8 -90 45 -138q68 -87 235 -87q100 0 176 43q75 44 75 134q0 67 -61 103h1q-39 23 -154 51l-143 36q-69 18 -120 37t-83 39q-54 37 -84.5 88t-30.5 115q0 74 28.5 137t79.5 110q111 93 296 93q242 0 350 -141q32 -45 48.5 -95t15.5 -101h-171q-2 31 -13.5 58.5
t-29.5 52.5q-31 34 -85.5 52.5t-128.5 18.5q-102 0 -154 -39t-52 -102q0 -69 69 -111q20 -13 50 -23.5t67 -20.5q29 -7 59.5 -14.5t59.5 -14.5q192 -46 261 -91q51 -35 77.5 -89t26.5 -128q0 -71 -28.5 -134t-79.5 -114q-54 -51 -137 -77.5t-194 -26.5q-239 0 -340 108
q-98 111 -105 271h174z" />
    <glyph glyph-name="t" unicode="t" horiz-adv-x="569" 
d="M167 1370h184v-298h171v-149h-171v-697q0 -55 37 -74q22 -11 70 -11q13 0 28.5 0.5t35.5 2.5v-144q-31 -9 -64.5 -13t-73.5 -4q-126 0 -172 64q-20 32 -32.5 75.5t-12.5 93.5v707h-145v149h145v298z" />
    <glyph glyph-name="u" unicode="u" horiz-adv-x="1139" 
d="M313 1072v-712q0 -39 7 -73t19 -60q24 -46 69 -70.5t109 -24.5q187 0 255 167q37 87 37 246v527h181v-1072h-171l2 155q-18 -30 -39.5 -55t-45.5 -45q-51 -40 -114.5 -62t-136.5 -22q-114 0 -192 39.5t-120 114.5q-20 41 -32.5 97.5t-12.5 121.5v728h185z" />
    <glyph glyph-name="v" unicode="v" horiz-adv-x="1024" 
d="M221 1072l285 -869q75 217 149 434t149 435h198l-403 -1072h-194l-394 1072h210z" />
    <glyph glyph-name="w" unicode="w" horiz-adv-x="1479" 
d="M217 1072l204 -840q52 211 104 420t104 420h204l209 -835q54 209 108 417t109 418h182l-311 -1072h-188l-217 825l-210 -825h-188l-309 1072h199z" />
    <glyph glyph-name="x" unicode="x" horiz-adv-x="1024" 
d="M29 1072h235l245 -376q60 91 124 188t124 188l221 -5l-360 -518q94 -137 188.5 -274.5t187.5 -274.5h-232l-265 399q-65 -100 -128.5 -199t-128.5 -200h-230l376 549z" />
    <glyph glyph-name="y" unicode="y" horiz-adv-x="1024" 
d="M800 1072h200q-3 -8 -6 -17t-7 -20q-22 -61 -61 -168.5t-94 -265.5q-47 -132 -89.5 -248t-74.5 -201q-79 -207 -133.5 -331.5t-86.5 -169.5q-65 -89 -221 -89q-38 0 -59 3q-11 2 -23.5 4.5t-26.5 6.5v165q23 -6 39.5 -10t28 -6t20.5 -2.5t17 -0.5q24 0 41.5 4.5
t30.5 12.5t22.5 18t17.5 22q4 7 13 28t23 53q16 36 27 64t18 46q-97 270 -197.5 551t-197.5 551h205l286 -869z" />
    <glyph glyph-name="z" unicode="z" horiz-adv-x="1024" 
d="M52 144l632 765h-585v163h830v-149l-628 -760h647v-163h-896v144z" />
    <glyph glyph-name="braceleft" unicode="{" horiz-adv-x="925" 
d="M675 -298h-87q-137 0 -200 73q-28 36 -43 101.5t-15 162.5v84q0 156 -38 216q-20 27 -55 42t-87 15v179q52 0 86.5 15t54.5 41q19 32 29 87t10 131v86q0 188 58 260q64 74 200 74h87v-150h-45q-72 0 -100 -31q-26 -26 -26 -152v-56q0 -181 -46 -273q-18 -39 -47 -69
t-67 -53q38 -20 67.5 -52t46.5 -67q22 -43 34 -112.5t12 -161.5v-56q0 -57 7 -97t19 -58q32 -29 100 -29h45v-150z" />
    <glyph glyph-name="bar" unicode="|" horiz-adv-x="532" 
d="M354 0h-173v1490h173v-1490z" />
    <glyph glyph-name="braceright" unicode="}" horiz-adv-x="924" 
d="M674 396q-51 0 -86.5 -15t-54.5 -41v1q-18 -32 -29 -86t-11 -132v-84q0 -94 -16 -160.5t-43 -103.5q-62 -73 -196 -73h-88v150h45q73 0 99 30q28 29 28 154v56q0 91 11.5 160t32.5 113q18 38 47.5 68.5t69.5 51.5q-80 42 -117 121q-44 87 -44 274v56q0 124 -28 152
q-27 31 -99 31h-45v150h88q133 0 196 -74q27 -35 43 -101.5t16 -158.5v-86q0 -71 10 -124t27 -88q18 -28 54 -45t90 -17v-179z" />
    <glyph glyph-name="asciitilde" unicode="~" horiz-adv-x="1196" 
d="M374 688q28 -4 56 -11.5t54 -17.5q55 -22 111 -43.5t111 -43.5q25 -10 46.5 -17.5t37.5 -12.5q53 -15 93 -15q35 0 66 15t56 42q25 29 42.5 64.5t26.5 77.5h118q-25 -145 -99 -261q-73 -116 -222 -116q-44 0 -107 17q-18 5 -45 14.5t-62 23.5q-48 18 -102 39t-102 39
q-38 15 -78.5 23t-66.5 8q-82 0 -130 -65q-28 -37 -57 -128h-119q9 42 18.5 77t18.5 64q20 61 70 134q42 51 90 74.5t114 23.5q14 0 29.5 -1.5t31.5 -3.5z" />
    <glyph glyph-name="Adieresis" unicode="&#xc4;" horiz-adv-x="1366" 
d="M756 1816h189v-209h-189v209zM426 1816h189v-209h-189v209zM909 603q-54 159 -111 322.5t-111 321.5q-60 -161 -118 -321.5t-118 -322.5h458zM582 1469h227l532 -1469h-220l-148 439h-579q-15 -42 -36 -100t-43 -119.5t-43 -119.5t-36 -100h-206z" />
    <glyph glyph-name="Aring" unicode="&#xc5;" horiz-adv-x="1366" 
d="M706 1611q51 0 88 37t37 88q0 50 -37 87t-88 37q-50 0 -87 -37t-37 -87q0 -51 37 -88t87 -37zM706 1945q86 0 148 -62t62 -147q0 -87 -62 -149q-61 -61 -148 -61t-148 61t-61 149q0 86 61 147q62 62 148 62zM909 603q-54 159 -111 322.5t-111 321.5q-60 -161 -118 -321.5
t-118 -322.5h458zM582 1469h227l532 -1469h-220l-148 439h-579q-15 -42 -36 -100t-43 -119.5t-43 -119.5t-36 -100h-206z" />
    <glyph glyph-name="Aring" unicode="&#x212b;" horiz-adv-x="1366" 
d="M706 1611q51 0 88 37t37 88q0 50 -37 87t-88 37q-50 0 -87 -37t-37 -87q0 -51 37 -88t87 -37zM706 1945q86 0 148 -62t62 -147q0 -87 -62 -149q-61 -61 -148 -61t-148 61t-61 149q0 86 61 147q62 62 148 62zM909 603q-54 159 -111 322.5t-111 321.5q-60 -161 -118 -321.5
t-118 -322.5h458zM582 1469h227l532 -1469h-220l-148 439h-579q-15 -42 -36 -100t-43 -119.5t-43 -119.5t-36 -100h-206z" />
    <glyph glyph-name="Ccedilla" unicode="&#xc7;" horiz-adv-x="1479" 
d="M1183 1027q-33 141 -131 224t-275 83q-216 0 -350 -153q-132 -151 -132 -465q0 -257 119 -417q121 -160 359 -160q219 0 333 169q61 86 91 233h196q-13 -118 -56 -214.5t-116 -175.5q-86 -93 -200.5 -140t-249.5 -49q-17 -23 -31.5 -43.5t-31.5 -43.5q30 8 71 8
q35 0 65 -10.5t51.5 -30.5t33.5 -49t12 -67q0 -76 -60 -131q-59 -55 -185 -55q-53 0 -110 15q-18 5 -39.5 12t-47.5 16l35 82q38 -14 60 -20q20 -5 38.5 -7.5t35.5 -2.5q19 0 34.5 2.5t29.5 7.5q51 20 51 75q0 32 -26 55t-70 23q-23 0 -40.5 -4t-41.5 -13l-36 42l101 139
q-175 1 -347 139q-233 221 -233 649q0 162 43.5 295.5t128.5 237.5q93 111 221.5 168.5t291.5 57.5q280 0 433 -147q77 -74 120 -157.5t51 -177.5h-196z" />
    <glyph glyph-name="Eacute" unicode="&#xc9;" horiz-adv-x="1366" 
d="M988 1873l-269 -290h-141l184 290h226zM175 1469h1071v-182h-876v-443h810v-172h-810v-495h891v-177h-1086v1469z" />
    <glyph glyph-name="Ntilde" unicode="&#xd1;" horiz-adv-x="1479" 
d="M775 1775q28 -12 51 -19t47 -7q54 0 79 35q13 18 18 56h107q-21 -127 -81 -176q-29 -23 -62.5 -35.5t-68.5 -12.5q-10 0 -25 2t-30.5 6t-31.5 8.5t-29 9.5q-12 5 -26.5 9.5t-26.5 9.5q-47 17 -76.5 25.5t-57.5 8.5q-71 0 -87 -93h-99q12 82 42 131q58 91 170 91
q17 0 35 -2t40.5 -7.5t49.5 -15t62 -24.5zM156 1469h236l739 -1185v1185h191v-1469h-225l-749 1184v-1184h-192v1469z" />
    <glyph glyph-name="Odieresis" unicode="&#xd6;" horiz-adv-x="1593" 
d="M866 1856h189v-209h-189v209zM536 1856h189v-209h-189v209zM1306 757q0 260 -136 415q-134 158 -368 158q-228 0 -370 -157q-144 -154 -144 -459q0 -243 123 -410t399 -167q262 0 378 188q118 187 118 432zM1366 1259q73 -98 109.5 -221.5t36.5 -277.5q0 -329 -167 -547
q-196 -256 -559 -256q-339 0 -533 224q-173 217 -173 546q0 147 38.5 276t109.5 234q47 61 107.5 111t132 86t152.5 55.5t170 19.5q389 0 576 -250z" />
    <glyph glyph-name="Udieresis" unicode="&#xdc;" horiz-adv-x="1479" 
d="M819 1816h189v-209h-189v209zM489 1816h189v-209h-189v209zM374 1469v-908q0 -162 59 -265q89 -159 299 -159q125 0 211 45.5t132 126.5q23 46 35.5 110t12.5 142v908h204v-825q0 -268 -73 -416q-68 -124 -197 -195.5t-309 -71.5t-308.5 71.5t-196.5 195.5
q-73 148 -73 416v825h204z" />
    <glyph glyph-name="aacute" unicode="&#xe1;" horiz-adv-x="1139" 
d="M827 1502l-269 -291h-141l184 291h226zM462 119q94 0 184 44q149 74 149 237v143q-33 -20 -84.5 -34t-101.5 -20l-109 -14q-48 -7 -85.5 -17t-61.5 -24q-82 -46 -82 -148q0 -76 57 -122q28 -20 63 -32.5t71 -12.5zM706 650q61 8 82 51q12 24 12 69q0 92 -65 133t-187 41
q-141 0 -199 -76q-32 -41 -43 -125h-169q5 200 127 277q123 77 288 77q191 0 308 -71q116 -71 116 -225v-616q0 -27 11.5 -44t47.5 -17q26 0 60 6v-135q-20 -6 -36.5 -9.5t-28.5 -5.5q-22 -3 -60 -3q-93 0 -135 66q-22 33 -31 96q-53 -68 -157 -122q-104 -53 -227 -53
q-151 0 -244 90q-94 91 -94 228q0 74 24 131.5t69 99.5q45 40 107 65.5t137 35.5z" />
    <glyph glyph-name="agrave" unicode="&#xe0;" horiz-adv-x="1139" 
d="M696 1211h-140l-270 291h227zM462 119q94 0 184 44q149 74 149 237v143q-33 -20 -84.5 -34t-101.5 -20l-109 -14q-48 -7 -85.5 -17t-61.5 -24q-82 -46 -82 -148q0 -76 57 -122q28 -20 63 -32.5t71 -12.5zM706 650q61 8 82 51q12 24 12 69q0 92 -65 133t-187 41
q-141 0 -199 -76q-32 -41 -43 -125h-169q5 200 127 277q123 77 288 77q191 0 308 -71q116 -71 116 -225v-616q0 -27 11.5 -44t47.5 -17q26 0 60 6v-135q-20 -6 -36.5 -9.5t-28.5 -5.5q-22 -3 -60 -3q-93 0 -135 66q-22 33 -31 96q-53 -68 -157 -122q-104 -53 -227 -53
q-151 0 -244 90q-94 91 -94 228q0 74 24 131.5t69 99.5q45 40 107 65.5t137 35.5z" />
    <glyph glyph-name="acircumflex" unicode="&#xe2;" horiz-adv-x="1139" 
d="M653 1502l205 -291h-167l-134 190q-34 -48 -67 -95t-67 -95h-166l204 291h192zM462 119q94 0 184 44q149 74 149 237v143q-33 -20 -84.5 -34t-101.5 -20l-109 -14q-48 -7 -85.5 -17t-61.5 -24q-82 -46 -82 -148q0 -76 57 -122q28 -20 63 -32.5t71 -12.5zM706 650
q61 8 82 51q12 24 12 69q0 92 -65 133t-187 41q-141 0 -199 -76q-32 -41 -43 -125h-169q5 200 127 277q123 77 288 77q191 0 308 -71q116 -71 116 -225v-616q0 -27 11.5 -44t47.5 -17q26 0 60 6v-135q-20 -6 -36.5 -9.5t-28.5 -5.5q-22 -3 -60 -3q-93 0 -135 66
q-22 33 -31 96q-53 -68 -157 -122q-104 -53 -227 -53q-151 0 -244 90q-94 91 -94 228q0 74 24 131.5t69 99.5q45 40 107 65.5t137 35.5z" />
    <glyph glyph-name="adieresis" unicode="&#xe4;" horiz-adv-x="1139" 
d="M627 1445h189v-210h-189v210zM297 1445h189v-210h-189v210zM462 119q94 0 184 44q149 74 149 237v143q-33 -20 -84.5 -34t-101.5 -20l-109 -14q-48 -7 -85.5 -17t-61.5 -24q-82 -46 -82 -148q0 -76 57 -122q28 -20 63 -32.5t71 -12.5zM706 650q61 8 82 51q12 24 12 69
q0 92 -65 133t-187 41q-141 0 -199 -76q-32 -41 -43 -125h-169q5 200 127 277q123 77 288 77q191 0 308 -71q116 -71 116 -225v-616q0 -27 11.5 -44t47.5 -17q26 0 60 6v-135q-20 -6 -36.5 -9.5t-28.5 -5.5q-22 -3 -60 -3q-93 0 -135 66q-22 33 -31 96q-53 -68 -157 -122
q-104 -53 -227 -53q-151 0 -244 90q-94 91 -94 228q0 74 24 131.5t69 99.5q45 40 107 65.5t137 35.5z" />
    <glyph glyph-name="atilde" unicode="&#xe3;" horiz-adv-x="1139" 
d="M606 1403q28 -12 51 -19t47 -7q54 0 79 35q14 20 18 57h107q-21 -128 -81 -177q-29 -23 -62.5 -35.5t-68.5 -12.5q-10 0 -25 2t-30.5 6t-31.5 8.5t-29 9.5q-12 5 -26.5 9.5t-26.5 9.5q-47 17 -76.5 25.5t-57.5 8.5q-71 0 -87 -93h-99q14 82 42 131q57 92 170 92
q17 0 35 -2t40.5 -8t49.5 -15.5t62 -24.5zM462 119q94 0 184 44q149 74 149 237v143q-33 -20 -84.5 -34t-101.5 -20l-109 -14q-48 -7 -85.5 -17t-61.5 -24q-82 -46 -82 -148q0 -76 57 -122q28 -20 63 -32.5t71 -12.5zM706 650q61 8 82 51q12 24 12 69q0 92 -65 133t-187 41
q-141 0 -199 -76q-32 -41 -43 -125h-169q5 200 127 277q123 77 288 77q191 0 308 -71q116 -71 116 -225v-616q0 -27 11.5 -44t47.5 -17q26 0 60 6v-135q-20 -6 -36.5 -9.5t-28.5 -5.5q-22 -3 -60 -3q-93 0 -135 66q-22 33 -31 96q-53 -68 -157 -122q-104 -53 -227 -53
q-151 0 -244 90q-94 91 -94 228q0 74 24 131.5t69 99.5q45 40 107 65.5t137 35.5z" />
    <glyph glyph-name="aring" unicode="&#xe5;" horiz-adv-x="1139" 
d="M556 1291q51 0 88 37t37 88t-37 88t-88 37q-50 0 -87 -37t-37 -88t37 -88t87 -37zM556 1626q86 0 148 -62t62 -148q0 -87 -62 -149q-61 -61 -148 -61t-148 61t-61 149q0 87 61 148q62 62 148 62zM462 119q94 0 184 44q149 74 149 237v143q-33 -20 -84.5 -34t-101.5 -20
l-109 -14q-48 -7 -85.5 -17t-61.5 -24q-82 -46 -82 -148q0 -76 57 -122q28 -20 63 -32.5t71 -12.5zM706 650q61 8 82 51q12 24 12 69q0 92 -65 133t-187 41q-141 0 -199 -76q-32 -41 -43 -125h-169q5 200 127 277q123 77 288 77q191 0 308 -71q116 -71 116 -225v-616
q0 -27 11.5 -44t47.5 -17q26 0 60 6v-135q-20 -6 -36.5 -9.5t-28.5 -5.5q-22 -3 -60 -3q-93 0 -135 66q-22 33 -31 96q-53 -68 -157 -122q-104 -53 -227 -53q-151 0 -244 90q-94 91 -94 228q0 74 24 131.5t69 99.5q45 40 107 65.5t137 35.5z" />
    <glyph glyph-name="ccedilla" unicode="&#xe7;" horiz-adv-x="1024" 
d="M800 710q-17 100 -73 164q-57 66 -182 66q-171 0 -245 -167q-48 -109 -48 -269q0 -159 68 -269t213 -110q56 0 100 17.5t77 50.5t55.5 80.5t34.5 106.5h176q-30 -214 -149 -313q-59 -48 -130 -72t-149 -26q-17 -23 -34.5 -47t-34.5 -47q30 8 72 8q35 0 65 -10.5
t51.5 -30.5t33.5 -49t12 -67q0 -76 -60 -131q-59 -55 -185 -55q-53 0 -110 15q-18 5 -39.5 12t-47.5 16l35 82q38 -14 60 -20q20 -5 38.5 -7.5t35.5 -2.5q19 0 34.5 2.5t29.5 7.5q51 20 51 75q0 32 -26 55t-70 23q-23 0 -40.5 -4t-41.5 -13l-36 42l108 146
q-72 0 -132.5 28.5t-114.5 85.5q-143 164 -143 423q0 281 136 440q135 156 350 156q184 0 295 -87q56 -45 90.5 -120.5t45.5 -184.5h-176z" />
    <glyph glyph-name="eacute" unicode="&#xe9;" horiz-adv-x="1139" 
d="M831 1502l-269 -291h-141l184 291h226zM864 622q-11 115 -51 186q-73 129 -246 129q-123 0 -207 -90q-42 -44 -64 -101t-25 -124h593zM962 904q26 -38 44 -88.5t28 -101.5q8 -37 12 -97t4 -140h-784q3 -79 22.5 -144.5t54.5 -114.5q36 -47 92.5 -72.5t129.5 -25.5
q69 0 125.5 24t98.5 69q48 54 68 125h178q-4 -30 -15.5 -63t-31.5 -70q-20 -35 -42.5 -66t-44.5 -53q-38 -36 -92.5 -64t-111.5 -44q-32 -8 -69 -12t-78 -4q-201 0 -340 145q-138 146 -138 408q0 258 139 420q139 160 367 160q57 0 112.5 -13.5t108.5 -39.5q52 -27 94 -61.5
t69 -76.5z" />
    <glyph glyph-name="egrave" unicode="&#xe8;" horiz-adv-x="1139" 
d="M700 1211h-140l-270 291h227zM864 622q-11 115 -51 186q-73 129 -246 129q-123 0 -207 -90q-42 -44 -64 -101t-25 -124h593zM962 904q26 -38 44 -88.5t28 -101.5q8 -37 12 -97t4 -140h-784q3 -79 22.5 -144.5t54.5 -114.5q36 -47 92.5 -72.5t129.5 -25.5q69 0 125.5 24
t98.5 69q48 54 68 125h178q-4 -30 -15.5 -63t-31.5 -70q-20 -35 -42.5 -66t-44.5 -53q-38 -36 -92.5 -64t-111.5 -44q-32 -8 -69 -12t-78 -4q-201 0 -340 145q-138 146 -138 408q0 258 139 420q139 160 367 160q57 0 112.5 -13.5t108.5 -39.5q52 -27 94 -61.5t69 -76.5z" />
    <glyph glyph-name="ecircumflex" unicode="&#xea;" horiz-adv-x="1139" 
d="M657 1502l205 -291h-167l-134 190q-34 -48 -67 -95t-67 -95h-166l204 291h192zM864 622q-11 115 -51 186q-73 129 -246 129q-123 0 -207 -90q-42 -44 -64 -101t-25 -124h593zM962 904q26 -38 44 -88.5t28 -101.5q8 -37 12 -97t4 -140h-784q3 -79 22.5 -144.5t54.5 -114.5
q36 -47 92.5 -72.5t129.5 -25.5q69 0 125.5 24t98.5 69q48 54 68 125h178q-4 -30 -15.5 -63t-31.5 -70q-20 -35 -42.5 -66t-44.5 -53q-38 -36 -92.5 -64t-111.5 -44q-32 -8 -69 -12t-78 -4q-201 0 -340 145q-138 146 -138 408q0 258 139 420q139 160 367 160
q57 0 112.5 -13.5t108.5 -39.5q52 -27 94 -61.5t69 -76.5z" />
    <glyph glyph-name="edieresis" unicode="&#xeb;" horiz-adv-x="1139" 
d="M631 1445h189v-210h-189v210zM301 1445h189v-210h-189v210zM864 622q-11 115 -51 186q-73 129 -246 129q-123 0 -207 -90q-42 -44 -64 -101t-25 -124h593zM962 904q26 -38 44 -88.5t28 -101.5q8 -37 12 -97t4 -140h-784q3 -79 22.5 -144.5t54.5 -114.5q36 -47 92.5 -72.5
t129.5 -25.5q69 0 125.5 24t98.5 69q48 54 68 125h178q-4 -30 -15.5 -63t-31.5 -70q-20 -35 -42.5 -66t-44.5 -53q-38 -36 -92.5 -64t-111.5 -44q-32 -8 -69 -12t-78 -4q-201 0 -340 145q-138 146 -138 408q0 258 139 420q139 160 367 160q57 0 112.5 -13.5t108.5 -39.5
q52 -27 94 -61.5t69 -76.5z" />
    <glyph glyph-name="iacute" unicode="&#xed;" horiz-adv-x="569" 
d="M545 1502l-269 -291h-141l184 291h226zM182 1067h185v-1067h-185v1067z" />
    <glyph glyph-name="igrave" unicode="&#xec;" horiz-adv-x="569" 
d="M409 1211h-140l-270 291h227zM177 1067h185v-1067h-185v1067z" />
    <glyph glyph-name="icircumflex" unicode="&#xee;" horiz-adv-x="569" 
d="M368 1502l205 -291h-167l-134 190q-34 -48 -67 -95t-67 -95h-166l204 291h192zM179 1067h185v-1067h-185v1067z" />
    <glyph glyph-name="idieresis" unicode="&#xef;" horiz-adv-x="569" 
d="M345 1445h189v-210h-189v210zM15 1445h189v-210h-189v210zM182 1067h185v-1067h-185v1067z" />
    <glyph glyph-name="ntilde" unicode="&#xf1;" horiz-adv-x="1139" 
d="M604 1403q28 -12 51 -19t47 -7q54 0 79 35q14 20 18 57h107q-21 -128 -81 -177q-29 -23 -62.5 -35.5t-68.5 -12.5q-10 0 -25 2t-30.5 6t-31.5 8.5t-29 9.5q-12 5 -26.5 9.5t-26.5 9.5q-47 17 -76.5 25.5t-57.5 8.5q-71 0 -87 -93h-99q12 82 42 131q57 92 170 92
q17 0 35 -2t40.5 -8t49.5 -15.5t62 -24.5zM132 1072h172v-150q76 93 160 133t189 40q115 0 192 -39t116 -120q44 -88 44 -249v-687h-184v675q0 48 -7.5 88t-21.5 70q-23 48 -66.5 73.5t-106.5 25.5q-66 0 -105 -13q-36 -11 -68.5 -33t-60.5 -55q-45 -53 -59 -109
q-7 -28 -10 -68t-3 -93v-561h-181v1072z" />
    <glyph glyph-name="oacute" unicode="&#xf3;" horiz-adv-x="1139" 
d="M828 1502l-269 -291h-141l184 291h226zM868 553q0 72 -12.5 134.5t-35.5 109.5q-39 66 -106 106.5t-155 40.5q-164 0 -239 -126t-75 -303q0 -169 75 -283t237 -114q178 0 244 134q67 135 67 301zM1057 558q0 -128 -33 -235.5t-93 -192.5q-63 -83 -160.5 -126t-230.5 -43
q-222 0 -351 149q-130 149 -130 402q0 270 137 431q134 159 368 159q210 0 351 -137q142 -139 142 -407z" />
    <glyph glyph-name="ograve" unicode="&#xf2;" horiz-adv-x="1139" 
d="M697 1211h-140l-270 291h227zM868 553q0 72 -12.5 134.5t-35.5 109.5q-39 66 -106 106.5t-155 40.5q-164 0 -239 -126t-75 -303q0 -169 75 -283t237 -114q178 0 244 134q67 135 67 301zM1057 558q0 -128 -33 -235.5t-93 -192.5q-63 -83 -160.5 -126t-230.5 -43
q-222 0 -351 149q-130 149 -130 402q0 270 137 431q134 159 368 159q210 0 351 -137q142 -139 142 -407z" />
    <glyph glyph-name="ocircumflex" unicode="&#xf4;" horiz-adv-x="1139" 
d="M654 1502l205 -291h-167l-134 190q-34 -48 -67 -95t-67 -95h-166l204 291h192zM868 553q0 72 -12.5 134.5t-35.5 109.5q-39 66 -106 106.5t-155 40.5q-164 0 -239 -126t-75 -303q0 -169 75 -283t237 -114q178 0 244 134q67 135 67 301zM1057 558q0 -128 -33 -235.5
t-93 -192.5q-63 -83 -160.5 -126t-230.5 -43q-222 0 -351 149q-130 149 -130 402q0 270 137 431q134 159 368 159q210 0 351 -137q142 -139 142 -407z" />
    <glyph glyph-name="odieresis" unicode="&#xf6;" horiz-adv-x="1139" 
d="M628 1445h189v-210h-189v210zM298 1445h189v-210h-189v210zM868 553q0 72 -12.5 134.5t-35.5 109.5q-39 66 -106 106.5t-155 40.5q-164 0 -239 -126t-75 -303q0 -169 75 -283t237 -114q178 0 244 134q67 135 67 301zM1057 558q0 -128 -33 -235.5t-93 -192.5
q-63 -83 -160.5 -126t-230.5 -43q-222 0 -351 149q-130 149 -130 402q0 270 137 431q134 159 368 159q210 0 351 -137q142 -139 142 -407z" />
    <glyph glyph-name="otilde" unicode="&#xf5;" horiz-adv-x="1139" 
d="M607 1403q28 -12 51 -19t47 -7q54 0 79 35q14 20 18 57h107q-21 -128 -81 -177q-29 -23 -62.5 -35.5t-68.5 -12.5q-10 0 -25 2t-30.5 6t-31.5 8.5t-29 9.5q-12 5 -26.5 9.5t-26.5 9.5q-47 17 -76.5 25.5t-57.5 8.5q-71 0 -87 -93h-100q14 83 43 131q57 92 170 92
q17 0 35 -2t40.5 -8t49.5 -15.5t62 -24.5zM868 553q0 72 -12.5 134.5t-35.5 109.5q-39 66 -106 106.5t-155 40.5q-164 0 -239 -126t-75 -303q0 -169 75 -283t237 -114q178 0 244 134q67 135 67 301zM1057 558q0 -128 -33 -235.5t-93 -192.5q-63 -83 -160.5 -126t-230.5 -43
q-222 0 -351 149q-130 149 -130 402q0 270 137 431q134 159 368 159q210 0 351 -137q142 -139 142 -407z" />
    <glyph glyph-name="uacute" unicode="&#xfa;" horiz-adv-x="1139" 
d="M829 1502l-269 -291h-141l184 291h226zM313 1072v-712q0 -39 7 -73t19 -60q24 -46 69 -70.5t109 -24.5q187 0 255 167q37 87 37 246v527h181v-1072h-171l2 155q-18 -30 -39.5 -55t-45.5 -45q-51 -40 -114.5 -62t-136.5 -22q-114 0 -192 39.5t-120 114.5
q-20 41 -32.5 97.5t-12.5 121.5v728h185z" />
    <glyph glyph-name="ugrave" unicode="&#xf9;" horiz-adv-x="1139" 
d="M698 1211h-140l-270 291h227zM313 1072v-712q0 -39 7 -73t19 -60q24 -46 69 -70.5t109 -24.5q187 0 255 167q37 87 37 246v527h181v-1072h-171l2 155q-18 -30 -39.5 -55t-45.5 -45q-51 -40 -114.5 -62t-136.5 -22q-114 0 -192 39.5t-120 114.5q-20 41 -32.5 97.5
t-12.5 121.5v728h185z" />
    <glyph glyph-name="ucircumflex" unicode="&#xfb;" horiz-adv-x="1139" 
d="M655 1502l205 -291h-167l-134 190q-34 -48 -67 -95t-67 -95h-166l204 291h192zM313 1072v-712q0 -39 7 -73t19 -60q24 -46 69 -70.5t109 -24.5q187 0 255 167q37 87 37 246v527h181v-1072h-171l2 155q-18 -30 -39.5 -55t-45.5 -45q-51 -40 -114.5 -62t-136.5 -22
q-114 0 -192 39.5t-120 114.5q-20 41 -32.5 97.5t-12.5 121.5v728h185z" />
    <glyph glyph-name="udieresis" unicode="&#xfc;" horiz-adv-x="1139" 
d="M629 1445h189v-210h-189v210zM299 1445h189v-210h-189v210zM313 1072v-712q0 -39 7 -73t19 -60q24 -46 69 -70.5t109 -24.5q187 0 255 167q37 87 37 246v527h181v-1072h-171l2 155q-18 -30 -39.5 -55t-45.5 -45q-51 -40 -114.5 -62t-136.5 -22q-114 0 -192 39.5
t-120 114.5q-20 41 -32.5 97.5t-12.5 121.5v728h185z" />
    <glyph glyph-name="dagger" unicode="&#x2020;" horiz-adv-x="1139" 
d="M80 880v159h385v430h194v-430h386v-159h-386v-1208h-194v1208h-385z" />
    <glyph glyph-name="degree" unicode="&#xb0;" horiz-adv-x="819" 
d="M414 937q75 0 133 56q58 57 58 136q0 77 -57 134q-55 57 -134 57q-77 0 -136 -57q-57 -55 -57 -136q0 -76 57 -133t136 -57zM716 1129q0 -130 -91 -217q-91 -86 -211 -86q-66 0 -121.5 24t-97.5 66q-41 45 -63 98t-22 112q0 128 89 217q89 88 215 88q128 0 215 -88
q87 -87 87 -214z" />
    <glyph glyph-name="cent" unicode="&#xa2;" horiz-adv-x="1139" 
d="M340 270q15 -32 38.5 -59t54.5 -50q55 194 110 385t110 386q-12 4 -28 7t-40 3q-125 0 -212 -115q-86 -116 -86 -304q0 -155 53 -253zM748 1275h85l-55 -201q118 -50 185 -143t79 -226h-169q-5 30 -15 59.5t-25 58.5q-33 60 -100 86q-54 -192 -111.5 -392t-111.5 -391
q18 -6 34.5 -8.5t45.5 -2.5q67 0 119.5 24t90.5 70q20 28 40.5 70.5t35.5 95.5h174q-17 -75 -42.5 -137.5t-61.5 -110.5q-128 -170 -372 -170q-36 0 -59.5 3.5t-49.5 10.5q-15 -51 -31 -104t-31 -104h-87l69 233q-75 35 -130 88.5t-87 122.5q-64 140 -64 314q0 256 131 419
q132 162 371 162q21 0 43.5 -2.5t45.5 -7.5z" />
    <glyph glyph-name="sterling" unicode="&#xa3;" horiz-adv-x="1139" 
d="M65 119q57 39 103 83t79 91.5t51 99.5t18 107q0 33 -13 75q-3 12 -11 32.5t-16 40.5h-220v106h157q-3 3 -11.5 17.5t-22.5 43.5q-17 34 -28 58.5t-16 40.5q-10 29 -17 67t-7 83q0 156 126 279q127 124 365 124q112 0 196.5 -31.5t141.5 -91.5t86.5 -147t30.5 -198h-186
q0 151 -70 229t-214 78q-139 0 -211 -74q-72 -73 -72 -176q0 -53 22 -107q23 -58 95 -195h329v-106h-283q8 -40 13.5 -69.5t5.5 -55.5q0 -99 -57.5 -194.5t-180.5 -189.5q66 32 130.5 51.5t125.5 19.5q72 0 190 -36q120 -35 156 -35q48 0 85 18q10 5 28.5 17t44.5 30
l85 -137q-28 -23 -53.5 -39.5t-48.5 -28.5q-37 -17 -74.5 -26t-79.5 -9q-61 0 -202 46q-139 46 -223 46q-75 0 -144 -26q-34 -14 -102 -55z" />
    <glyph glyph-name="section" unicode="&#xa7;" horiz-adv-x="1139" 
d="M732 218q56 33 86 67q50 59 50 144q0 76 -53 132q-16 17 -51 42t-83 54q-72 44 -145.5 89t-145.5 89q-26 -14 -48.5 -30.5t-36.5 -31.5q-53 -56 -53 -135q0 -21 3.5 -40t9.5 -36q26 -59 93 -104zM556 1470q241 0 332 -160v1q47 -82 50 -218h-176q-7 96 -33 141
q-46 81 -164 81q-94 0 -143 -44t-49 -118q0 -42 19.5 -76t54.5 -60q38 -26 107.5 -67.5t154.5 -89.5q165 -94 250.5 -194.5t85.5 -204.5q0 -118 -72 -208q-20 -24 -56 -56t-81 -64q46 -47 77.5 -108t31.5 -124q0 -137 -104 -234q-106 -98 -284 -98q-116 0 -199 39.5
t-131 111.5q-24 41 -40.5 99.5t-21.5 134.5h179q4 -48 13 -84.5t22 -59.5q49 -83 166 -83q79 0 125 21q87 37 87 146q0 44 -27 85q-8 11 -19.5 23t-25.5 23q-8 7 -34 25.5t-70 47.5q-18 12 -35 24t-34 23q-8 5 -15 10t-15 10q-44 29 -89 59.5t-89 59.5q-52 34 -89.5 65
t-60.5 57q-79 88 -79 201q0 48 15.5 91t44 82t67.5 73t85 64q-17 17 -36.5 41.5t-30.5 44.5q-26 56 -26 122q0 147 98 245q100 100 264 100z" />
    <glyph glyph-name="bullet" unicode="&#x2022;" horiz-adv-x="717" 
d="M580 734q0 -97 -63 -160q-61 -63 -159 -63q-97 0 -160 63q-62 64 -62 160q0 97 62 159q64 62 160 62q97 0 159 -62q63 -61 63 -159z" />
    <glyph glyph-name="paragraph" unicode="&#xb6;" horiz-adv-x="1100" 
d="M940 -362h-148v1713h-229v-1713h-149v887q-106 2 -186 39t-133 109q-106 145 -106 322q0 73 18.5 139.5t53.5 124.5q66 100 173.5 155t254.5 55h576v-118h-125v-1713z" />
    <glyph glyph-name="germandbls" unicode="&#xdf;" horiz-adv-x="1251" 
d="M199 1024q0 286 152 397q101 70 255 70q207 0 319 -101q110 -100 110 -266q0 -115 -44 -190.5t-119 -113.5q45 -11 83 -36.5t67 -61.5q37 -48 60.5 -118t23.5 -153q0 -197 -112 -339q-112 -141 -319 -141q-24 0 -42 0.5t-30 1.5q-13 1 -27.5 3t-31.5 5v158q24 -3 44 -5
t46 -2q52 0 101.5 18t93.5 50q89 69 89 240q0 82 -30 143t-84 97q-35 21 -77.5 32.5t-87.5 11.5q-18 0 -40.5 -2t-45.5 -5v163q18 -3 27.5 -4t21.5 -1q144 0 199 73q56 74 56 153q0 102 -61 166q-60 65 -179 65q-154 0 -207 -111q-30 -63 -30 -197v-1024h-181v1024z" />
    <glyph glyph-name="registered" unicode="&#xae;" horiz-adv-x="1509" 
d="M600 1044v-290h127q90 0 135 18q82 33 82 125q0 88 -53 117q-52 30 -171 30h-120zM739 1142q148 0 220 -29q126 -52 126 -204q0 -54 -20.5 -94t-58.5 -66q-20 -13 -47.5 -22.5t-63.5 -15.5q92 -17 133 -78q44 -65 44 -126v-59q0 -14 0.5 -30t1.5 -30t2.5 -25t4.5 -16
l5 -11h-135q0 3 -2 7q-1 2 -1 5t-1 6l-3 25v64q0 139 -76 184h1q-46 26 -158 26h-111v-317h-144v806h283zM309 1182q-184 -183 -184 -445q0 -263 183 -448q183 -186 445 -186t445 186q184 184 184 448q0 262 -184 445q-183 186 -445 186q-261 0 -444 -186zM1273 216
q-214 -216 -520 -216q-304 0 -519 216q-213 213 -213 521q0 303 215 518q214 214 517 214q306 0 520 -214q108 -108 161.5 -236t53.5 -282q0 -306 -215 -521z" />
    <glyph glyph-name="copyright" unicode="&#xa9;" horiz-adv-x="1509" 
d="M773 310q-166 0 -283 117q-116 117 -116 315q0 185 104 307q107 122 277 122q108 0 193 -43q150 -78 163 -257h-123q-9 74 -63 130q-54 55 -156 55q-144 0 -209 -129q-42 -82 -42 -179q0 -66 17.5 -124.5t49.5 -105.5q34 -45 83 -69t112 -24q81 0 136 43t77 127h122
q-21 -137 -116 -212q-96 -73 -226 -73zM311 1182q-183 -183 -183 -445q0 -263 182 -448q183 -186 444 -186t444 186q182 185 182 448q0 262 -183 445q-181 186 -443 186q-260 0 -443 -186zM1274 216q-214 -216 -520 -216q-305 0 -520 216q-215 215 -215 521q0 154 53.5 282
t161.5 236q214 214 520 214t520 -214q108 -108 161.5 -236t53.5 -282q0 -306 -215 -521z" />
    <glyph glyph-name="trademark" unicode="&#x2122;" horiz-adv-x="2048" 
d="M239 1346v123h619v-123h-236v-603h-146v603h-237zM1188 1469l183 -516q47 129 93 257.5t93 258.5h208v-726h-135v579q-51 -146 -99.5 -289.5t-99.5 -289.5h-117l-200 579v-579h-135v726h209z" />
    <glyph glyph-name="acute" unicode="&#xb4;" horiz-adv-x="682" 
d="M601 1502l-269 -291h-141l184 291h226z" />
    <glyph glyph-name="dieresis" unicode="&#xa8;" horiz-adv-x="682" 
d="M401 1445h189v-210h-189v210zM71 1445h189v-210h-189v210z" />
    <glyph glyph-name="notequal" unicode="&#x2260;" horiz-adv-x="1124" 
d="M1083 823v-170h-374q-27 -63 -58 -129.5t-58 -129.5h490v-172h-566q-26 -59 -54.5 -120.5t-54.5 -120.5h-177l109 241h-300v172h376q27 63 58 129.5t58 129.5h-492v170h568q26 59 53.5 121t53.5 121h177l-107 -242h298z" />
    <glyph glyph-name="notequal_mirror" unicode="&#xe8d0;" horiz-adv-x="1124" 
d="M339 823q-26 59 -53.5 121t-53.5 121h177l107 -242h568v-170h-492q27 -63 58 -129.5t58 -129.5h376v-172h-300q26 -59 54.5 -120.5t54.5 -120.5h-177l-109 241h-566v172h490q-27 63 -58 129.5t-58 129.5h-374v170h298z" />
    <glyph glyph-name="AE" unicode="&#xc6;" horiz-adv-x="2048" 
d="M738 1296q-68 -171 -136 -345t-136 -346h469v691h-197zM613 1469h1316v-177h-795v-448h729v-168h-729v-499h814v-177h-1013v435h-538q-19 -51 -39.5 -106t-41.5 -111t-42 -111t-40 -107h-218z" />
    <glyph glyph-name="Oslash" unicode="&#xd8;" horiz-adv-x="1593" 
d="M1030 1279q-103 51 -235 51q-224 0 -365 -158q-142 -155 -142 -458q0 -45 5.5 -93t17 -95.5t28.5 -92t41 -82.5q192 209 385.5 421t385.5 421q-66 59 -121 86zM812 137q267 0 397 223q97 166 97 397q0 65 -10 125t-28 114q-11 28 -26.5 60.5t-34.5 65.5
q-188 -207 -383 -421t-384 -421q67 -68 147 -106q81 -37 225 -37zM133 -37l-68 64l175 180q-38 53 -67.5 114t-50 127.5t-31.5 137t-11 141.5q0 304 156 520q96 132 230.5 197.5t314.5 65.5q176 0 299.5 -44.5t205.5 -120.5q37 39 77.5 82.5t76.5 82.5l66 -63l-157 -173
q55 -70 103 -177q60 -145 60 -337q0 -365 -205 -586q-199 -217 -513 -217q-187 0 -324 63q-43 21 -85.5 50t-82.5 66z" />
    <glyph glyph-name="infinity" unicode="&#x221e;" horiz-adv-x="1460" 
d="M1060 963q-90 0 -164 -98q-73 -97 -73 -128q0 -16 19 -50.5t55 -85.5q36 -48 78.5 -75.5t85.5 -27.5t79 18t62 50q26 34 39.5 77t13.5 94q0 48 -13.5 88.5t-39.5 72.5q-26 31 -62 48t-80 17zM397 494q45 0 88.5 28.5t82.5 80.5q39 54 59.5 90t20.5 53q0 22 -87 121
q-85 99 -173 99q-35 0 -67.5 -17.5t-58.5 -48.5q-52 -67 -52 -175q0 -113 58 -172q59 -59 129 -59zM721 560q-51 -85 -102 -132q-95 -86 -223 -86q-75 0 -138 28t-111 80q-47 55 -71.5 125.5t-24.5 158.5q0 81 23.5 150.5t68.5 126.5q46 54 109 84t140 30q101 0 181 -60
t149 -194q33 59 65 103t61 70q45 39 102 61t122 22q159 0 248 -118q89 -119 89 -272q0 -78 -23 -148t-65 -129q-44 -58 -104.5 -88t-138.5 -30q-120 0 -207 76q-37 32 -69 76.5t-61 100.5z" />
    <glyph glyph-name="plusminus" unicode="&#xb1;" horiz-adv-x="1124" 
d="M1083 163v-163h-1043v163h1043zM40 556v160h435v330h173v-330h435v-160h-435v-317h-173v317h-435z" />
    <glyph glyph-name="lessequal" unicode="&#x2264;" horiz-adv-x="1124" 
d="M1083 0h-1043v163h1043v-163zM1083 1065v-182l-826 -255q208 -65 413.5 -129t412.5 -129v-181l-1043 352v171z" />
    <glyph glyph-name="greaterequal" unicode="&#x2265;" horiz-adv-x="1124" 
d="M1083 163v-163h-1043v163h1043zM40 1065l1043 -353v-171l-1043 -352v181l827 258q-208 64 -414 127.5t-413 127.5v182z" />
    <glyph glyph-name="yen" unicode="&#xa5;" horiz-adv-x="1139" 
d="M193 1405l364 -673q92 169 183.5 336.5t182.5 336.5h225l-264 -444h173v-138h-252q-31 -52 -64 -108t-64 -108h347v-137h-372v-470h-191v470h-362v137h337q-32 54 -63.5 108t-63.5 108h-257v138h178q-65 111 -130.5 221.5t-131.5 222.5h225z" />
    <glyph glyph-name="mu" unicode="&#xb5;" horiz-adv-x="1180" 
d="M455 1070l-163 -757q-4 -17 -5.5 -29.5t-1.5 -27.5q0 -47 19 -75q35 -51 131 -51q144 0 244 106q49 52 82 115t50 132q32 146 64 293.5t63 293.5h185l-230 -1070h-174l41 175q-13 -21 -36 -46.5t-55 -53.5q-122 -103 -274 -103q-45 0 -96 17q-20 8 -40.5 18t-30.5 19
q-24 -113 -48 -224t-48 -223h-187l323 1491h187z" />
    <glyph glyph-name="partialdiff" unicode="&#x2202;" horiz-adv-x="1012" 
d="M516 120q106 0 182 108q78 110 78 240q0 120 -65 187q-64 66 -149 66q-56 0 -103.5 -27.5t-83.5 -78.5q-72 -107 -72 -229q0 -55 17 -105t46 -87q66 -74 150 -74zM539 895q109 0 178.5 -50t117.5 -148q1 20 1 39.5t1 36.5q1 18 1.5 33t0.5 25q0 135 -26 260
q-26 118 -72.5 183t-111.5 65q-35 0 -61 -14t-54 -39l-132 161q29 17 52.5 27.5t41.5 16.5q60 20 124 20q212 0 326 -223q101 -197 101 -506q0 -311 -129 -545q-152 -275 -415 -275q-165 0 -272 125q-105 126 -105 310q0 178 119 338q120 160 314 160z" />
    <glyph glyph-name="partialdiff_mirror" unicode="&#xe8d1;" horiz-adv-x="1012" 
d="M618 120q86 0 149 74q64 74 64 192q0 123 -73 229q-72 106 -186 106q-85 0 -150 -66q-64 -65 -64 -187q0 -66 19.5 -126t57.5 -114q38 -51 85 -79.5t98 -28.5zM297 773q1 -16 1 -36.5t1 -39.5q48 98 117.5 148t178.5 50q194 0 314 -160q119 -160 119 -338
q0 -184 -105 -310q-107 -125 -272 -125q-263 0 -415 275q-129 234 -129 545q0 309 101 506q114 223 326 223q64 0 124 -20q18 -6 41.5 -16.5t52.5 -27.5l-132 -161q-28 25 -54 39t-61 14q-64 0 -111 -65t-73 -183q-12 -60 -19 -127t-7 -133q0 -10 0.5 -25t1.5 -33z" />
    <glyph glyph-name="summation" unicode="&#x2211;" horiz-adv-x="1460" 
d="M169 -130l639 730q-153 173 -308.5 347.5t-307.5 346.5v175h1091v-175h-847q155 -174 308.5 -346.5t308.5 -347.5l-637 -725h898v-175h-1145v170z" />
    <glyph glyph-name="summation_mirror" unicode="&#xe8d2;" horiz-adv-x="1460" 
d="M1315 -300h-1145v175h898q-160 183 -318.5 362.5t-318.5 362.5l617 694h-847v175h1091v-175l-616 -694q157 -180 319.5 -365t319.5 -365v-170z" />
    <glyph glyph-name="product" unicode="&#x220f;" horiz-adv-x="1686" 
d="M1555 1469v-175h-177v-1594h-202v1594h-666v-1594h-202v1594h-177v175h1424z" />
    <glyph glyph-name="pi" unicode="&#x3c0;" horiz-adv-x="1124" 
d="M-22 1066h1157v-162h-147v-655q-2 -110 74 -108q57 0 87 10v-161q-43 -10 -150 -10q-67 0 -102 22h1q-38 18 -61 54q-20 39 -26 84q-5 22 -7 48t-2 53v663h-491v-904h-185v904h-148v162z" />
    <glyph glyph-name="integral" unicode="&#x222b;" horiz-adv-x="561" 
d="M248 1352q76 193 277 193q21 0 42 -2t40 -7q28 -6 65 -19l-15 -164q-41 17 -66 25.5t-50 8.5q-90 0 -122 -90q-35 -92 -45 -316l-33 -682q-18 -365 -94 -541q-76 -177 -282 -177q-41 0 -70.5 7t-57.5 17l14 167q26 -13 49.5 -21t53.5 -8q84 0 127 76q20 38 34 110t20 171
q13 218 26 440t26 441q17 263 61 371z" />
    <glyph glyph-name="integral_mirror" unicode="&#xe8d3;" horiz-adv-x="561" 
d="M262 1352q44 -108 61 -371l52 -881q6 -99 20 -171t34 -110q43 -76 127 -76q30 0 53.5 8t49.5 21l14 -167q-28 -10 -57.5 -17t-70.5 -7q-205 0 -282 177q-76 176 -94 541l-33 682q-10 224 -45 316q-31 90 -122 90q-25 0 -50 -8.5t-66 -25.5l-15 164q37 13 65 19q19 5 40 7
t42 2q201 0 277 -193z" />
    <glyph glyph-name="ordfeminine" unicode="&#xaa;" horiz-adv-x="758" 
d="M494 1166q-46 -21 -158 -36q-125 -26 -125 -107q0 -41 25 -64t76 -23q41 0 74.5 9t57.5 27.5t37 48t13 70.5v75zM438 1242q23 4 40.5 14.5t17.5 42.5q0 53 -31 77.5t-103 24.5q-71 0 -102.5 -28.5t-36.5 -76.5h-130q4 51 22 90.5t49 67.5q62 55 220 55q156 0 217 -72
q40 -47 40 -135v-314q0 -20 7 -32t36 -12q2 0 4 0.5t7 0.5t11 0.5t13 0.5v-108q-22 -6 -42 -9t-43 -3q-52 0 -77.5 27.5t-31.5 72.5q-49 -57 -118 -79q-69 -21 -127 -21q-111 0 -167 59q-55 58 -55 136q0 52 23.5 92t65.5 66q23 14 58.5 25t73.5 16z" />
    <glyph glyph-name="ordmasculine" unicode="&#xba;" horiz-adv-x="748" 
d="M195 1157q0 -86 41 -150q42 -63 131 -63q113 0 158 94q28 55 28 133q0 109 -51 164q-50 56 -121 56q-88 0 -137 -60t-49 -174zM702 1170q0 -149 -84 -247q-82 -97 -246 -97q-92 0 -159.5 34t-109.5 100q-55 89 -55 202q0 114 56 206q87 141 278 141q144 0 232 -85
t88 -254z" />
    <glyph glyph-name="Omegagreek" unicode="&#x3a9;" horiz-adv-x="1593" 
d="M100 174h345v2q-161 104 -248.5 261.5t-83.5 357.5q16 673 684 688q668 -15 684 -688q6 -409 -333 -618v-3h345v-174h-568v173q361 202 357 620q0 223 -123 368q-122 147 -362 148q-239 -2 -361 -148q-125 -146 -125 -368q-4 -418 358 -620v-173h-569v174z" />
    <glyph glyph-name="ae" unicode="&#xe6;" horiz-adv-x="1821" 
d="M1541 622q-2 77 -23.5 136.5t-63.5 98.5q-82 81 -201 81t-206 -81q-43 -39 -67 -98.5t-29 -136.5h590zM781 542q-11 -8 -22.5 -13.5t-25.5 -11.5q-22 -8 -85 -19l-152 -23q-112 -18 -159 -45h1q-79 -46 -79 -142q0 -82 63 -128q32 -20 70.5 -32.5t78.5 -12.5q24 0 53 6
t59.5 19t61.5 32t58 45q24 23 40 46.5t24 46.5q10 32 14 100v132zM685 650q47 8 73.5 37t26.5 80q0 86 -55.5 130.5t-178.5 44.5q-98 0 -159 -32h1q-100 -58 -100 -170h-175q10 227 178 311q98 46 263 46q134 0 228 -48q80 -44 122 -110q60 77 147.5 117.5t199.5 40.5
q58 0 112.5 -10.5t103 -32t90.5 -55.5t75 -81q28 -38 48 -86.5t30 -99.5q9 -51 14.5 -116t5.5 -139h-786q6 -163 82 -260t215 -97q128 0 196 57t94 161h184q-9 -84 -67 -167q-57 -83 -122 -126q-69 -43 -143 -62t-149 -19q-149 0 -261 76q-51 38 -84.5 75t-47.5 75
q-82 -120 -186 -173t-226 -53q-172 0 -267 86q-94 85 -94 223q0 89 30.5 155t90.5 111q36 26 91.5 45t115.5 28z" />
    <glyph glyph-name="oslash" unicode="&#xf8;" horiz-adv-x="1251" 
d="M610 118q188 0 267 177q48 105 48 245q0 91 -15 155q-3 15 -10.5 37.5t-15.5 42.5q-123 -140 -247 -280.5t-247 -280.5q49 -56 105.5 -76t114.5 -20zM618 944q-72 0 -129.5 -31t-102.5 -91q-41 -60 -64 -140t-23 -171q0 -73 15 -138q9 -33 29 -91q123 137 250.5 280
t250.5 281q-15 20 -38.5 38.5t-53 32.5t-64 22t-70.5 8zM91 5l128 135q-49 74 -76 166t-27 217q0 230 126 404q125 176 369 176q127 0 221 -45q27 -14 61 -36.5t67 -50.5q30 35 62 71t62 70l54 -51l-128 -144q29 -45 52 -98.5t37 -112.5q17 -79 17 -154q0 -259 -139 -426
q-138 -167 -370 -167q-110 0 -195.5 32.5t-139.5 87.5q-29 -31 -60 -64.5t-60 -63.5z" />
    <glyph glyph-name="questiondown" unicode="&#xbf;" horiz-adv-x="1251" 
d="M544 1076h201v-210h-201v210zM425 375q90 90 113 151q22 60 22 176h180q0 -153 -30 -225q-31 -72 -167 -217l-78 -83q-52 -54 -70 -101t-18 -89q0 -48 17.5 -92t46.5 -79q32 -31 85 -50.5t116 -19.5q150 0 214 111v-1q36 64 46 212h174q5 -250 -127 -365t-317 -115
q-91 0 -171.5 26.5t-145.5 75.5q-63 52 -96 123.5t-33 162.5q0 101 47 178t145 175z" />
    <glyph glyph-name="exclamdown" unicode="&#xa1;" horiz-adv-x="682" 
d="M231 1072h206v-211h-206v211zM231 86l52 635h103l51 -635v-484h-206v484z" />
    <glyph glyph-name="logicalnot" unicode="&#xac;" horiz-adv-x="1196" 
d="M1119 823v-601h-169v431h-874v170h1043z" />
    <glyph glyph-name="radical" unicode="&#x221a;" horiz-adv-x="1124" 
d="M537 -38l-309 908q-45 -27 -95 -58t-95 -58l-55 104l352 200l276 -829q143 419 285 838t284 837h149l-660 -1942h-132z" />
    <glyph glyph-name="radical_mirror" unicode="&#xe8ce;" horiz-adv-x="1124" 
d="M643 -38l-660 1942h149l569 -1675q69 208 138 414.5t138 414.5l352 -200l-55 -104l-190 116q-77 -229 -154 -454t-155 -454h-132z" />
    <glyph glyph-name="florin" unicode="&#x192;" horiz-adv-x="1139" 
d="M71 -228q24 -12 48.5 -20.5t51.5 -8.5q100 0 149 99q16 31 32.5 96.5t34.5 161.5q32 174 65.5 350t65.5 350h-226v144h254q24 115 40 186.5t23 95.5q15 52 51 122q52 83 123 121t158 38q45 0 80 -7t67 -21l-31 -164q-22 9 -38 15.5t-29 10.5t-24 6t-23 2q-81 0 -124 -79
q-20 -39 -42.5 -123t-43.5 -203h234v-144h-260q-22 -121 -45 -250.5t-45 -250.5q-16 -87 -32.5 -164.5t-33.5 -142t-33.5 -115t-31.5 -83.5q-52 -105 -132 -159t-188 -54q-46 0 -74 7t-52 17z" />
    <glyph glyph-name="approxequal" unicode="&#x2248;" horiz-adv-x="1124" 
d="M40 348q77 66 137 94q27 12 61.5 18.5t71.5 6.5q98 0 261 -75q167 -73 236 -73q44 0 83.5 11.5t74.5 32.5q35 23 65 48t53 54v-195q-67 -55 -132.5 -84.5t-140.5 -29.5q-31 0 -69.5 7.5t-69.5 16.5q-11 4 -50.5 20.5t-106.5 45.5q-33 15 -59.5 25.5t-43.5 16.5
q-27 8 -53.5 12.5t-50.5 4.5q-43 0 -83 -12.5t-75 -34.5q-22 -14 -49.5 -39t-59.5 -60v189zM40 769q38 34 73 57.5t64 37.5q27 12 61.5 18.5t71.5 6.5q98 0 261 -75q166 -74 236 -74q95 0 187 65q54 38 89 83v-197q-19 -17 -43.5 -34t-51.5 -32q-44 -23 -89 -35.5t-89 -12.5
q-12 0 -29.5 1.5t-36 4.5t-37.5 7.5t-36 10.5q-11 3 -52 20.5t-105 45.5q-32 14 -59 25t-44 17q-27 8 -53.5 12.5t-50.5 4.5q-84 0 -155 -45q-22 -14 -50 -40t-62 -61v189z" />
    <glyph glyph-name="approxequal_mirror" unicode="&#xe8cf;" horiz-adv-x="1124" 
d="M1084 159q-32 35 -59 59.5t-50 39.5q-35 22 -75 34.5t-83 12.5q-24 0 -50.5 -4.5t-53.5 -12.5q-17 -6 -43.5 -16.5t-59.5 -25.5q-67 -29 -106.5 -45.5t-50.5 -20.5q-31 -9 -69.5 -16.5t-69.5 -7.5q-75 0 -140.5 29.5t-132.5 84.5v195q23 -28 52.5 -53.5t64.5 -48.5
q34 -20 75.5 -32t83.5 -12q69 0 235 73q165 75 262 75q79 0 133 -25q61 -28 137 -94v-189zM1084 580q-34 35 -62 61t-50 40q-34 20 -74 32.5t-81 12.5q-24 0 -50.5 -4.5t-53.5 -12.5q-17 -6 -43.5 -16.5t-59.5 -25.5q-69 -29 -107.5 -45.5t-49.5 -20.5q-16 -5 -35.5 -9.5
t-38.5 -7.5t-36 -5t-29 -2q-44 0 -89 12.5t-89 35.5q-27 15 -51.5 32t-43.5 34v197q35 -45 89 -83q92 -65 187 -65q70 0 235 74q165 75 262 75q79 0 133 -25q29 -14 63.5 -37t73.5 -58v-189z" />
    <glyph glyph-name="Delta" unicode="&#x2206;" horiz-adv-x="1253" 
d="M1002 165q-94 272 -192 554t-192 554l-368 -1108h752zM1253 0h-1254l514 1469h217z" />
    <glyph glyph-name="guillemotleft" unicode="&#xab;" horiz-adv-x="1211" 
d="M609 136l-108 -94l-351 405v125l351 405l108 -95l-315 -373zM961 139l-113 -95l-346 403v125l346 403l113 -95l-315 -371z" />
    <glyph glyph-name="guillemotright" unicode="&#xbb;" horiz-adv-x="1211" 
d="M961 447l-349 -405l-109 94l314 372q-8 10 -17.5 20.5t-17.5 21.5q-29 36 -60 72.5t-62 71.5q-11 13 -22 25.5t-22 26.5l-58 70t-55 66l109 95l349 -405v-125zM610 447l-350 -405l-109 94l315 373q-2 2 -3.5 4.5t-3.5 4.5q-6 8 -12.5 15t-12.5 15q-36 42 -76.5 89
t-78.5 92q-33 38 -66.5 77.5t-62.5 74.5l110 96l350 -405v-125z" />
    <glyph glyph-name="ellipsis" unicode="&#x2026;" horiz-adv-x="1821" 
d="M1025 223q0 -121 -136 -121q-127 0 -127 121q0 110 136 110q127 0 127 -110zM466 223q0 -121 -138 -121q-128 0 -128 121q0 110 139 110q127 0 127 -110zM1571 223q0 -121 -141 -121q-125 0 -125 121q0 110 135 110q131 0 131 -110z" />
    <glyph glyph-name="Agrave" unicode="&#xc0;" horiz-adv-x="1366" 
d="M825 1583h-140l-270 290h227zM909 603q-54 159 -111 322.5t-111 321.5q-60 -161 -118 -321.5t-118 -322.5h458zM582 1469h227l532 -1469h-220l-148 439h-579q-15 -42 -36 -100t-43 -119.5t-43 -119.5t-36 -100h-206z" />
    <glyph glyph-name="Atilde" unicode="&#xc3;" horiz-adv-x="1366" 
d="M735 1775q28 -12 51 -19t47 -7q54 0 79 35q13 18 18 56h107q-21 -127 -81 -176q-29 -23 -62.5 -35.5t-68.5 -12.5q-10 0 -25 2t-30.5 6t-31.5 8.5t-29 9.5q-12 5 -26.5 9.5t-26.5 9.5q-47 17 -76.5 25.5t-57.5 8.5q-71 0 -87 -93h-100q14 83 43 131q58 91 170 91
q17 0 35 -2t40.5 -7.5t49.5 -15t62 -24.5zM909 603q-54 159 -111 322.5t-111 321.5q-60 -161 -118 -321.5t-118 -322.5h458zM582 1469h227l532 -1469h-220l-148 439h-579q-15 -42 -36 -100t-43 -119.5t-43 -119.5t-36 -100h-206z" />
    <glyph glyph-name="Otilde" unicode="&#xd5;" horiz-adv-x="1593" 
d="M845 1814q28 -12 51 -18.5t47 -6.5q54 0 79 34q14 20 18 57h107q-11 -65 -31.5 -108.5t-49.5 -67.5q-29 -23 -62.5 -35.5t-68.5 -12.5q-10 0 -25 2t-30.5 6t-31.5 8.5t-29 9.5q-12 5 -26.5 9.5t-26.5 9.5q-47 17 -76.5 25.5t-57.5 8.5q-71 0 -87 -93h-100q14 83 43 131
q58 91 170 91q17 0 35 -2t40.5 -8t49.5 -15.5t62 -24.5zM1306 757q0 260 -136 415q-134 158 -368 158q-228 0 -370 -157q-144 -154 -144 -459q0 -243 123 -410t399 -167q262 0 378 188q118 187 118 432zM1366 1259q73 -98 109.5 -221.5t36.5 -277.5q0 -329 -167 -547
q-196 -256 -559 -256q-339 0 -533 224q-173 217 -173 546q0 147 38.5 276t109.5 234q47 61 107.5 111t132 86t152.5 55.5t170 19.5q389 0 576 -250z" />
    <glyph glyph-name="OE" unicode="&#x152;" horiz-adv-x="2048" 
d="M1058 1007q0 75 -26 135.5t-75 105.5q-50 42 -113.5 65.5t-135.5 23.5q-126 0 -217 -61.5t-145 -179.5q-34 -77 -52 -174.5t-18 -208.5q0 -255 106 -418q107 -165 334 -165q124 0 233 83q109 82 109 277v517zM1070 1469h902v-177h-710v-448h676v-172h-676v-495h714v-177
h-908v151q-23 -38 -59.5 -71.5t-85.5 -59.5q-100 -54 -265 -54q-223 0 -405 189q-180 209 -180 565q0 149 31 274t94 231q163 277 502 277q129 0 222.5 -47t147.5 -132v146z" />
    <glyph glyph-name="oe" unicode="&#x153;" horiz-adv-x="1933" 
d="M1657 617q-8 115 -49 187q-76 133 -252 133q-42 0 -83.5 -13.5t-79.5 -39.5q-57 -41 -92 -110.5t-46 -156.5h602zM883 549q0 197 -88 294q-88 99 -222 99q-65 0 -122 -27.5t-102 -78.5q-45 -54 -68 -135t-23 -189q0 -90 23.5 -163t65.5 -127q45 -51 103 -79t127 -28
q110 0 208 95t98 339zM579 1099q170 0 280 -80q62 -45 115 -128q64 99 166.5 152.5t231.5 53.5q118 0 215.5 -50t163.5 -141q29 -43 50 -95t31 -109q6 -35 9.5 -91.5t4.5 -133.5h-793q5 -130 46 -211q77 -153 267 -153q134 0 213 91q22 25 40.5 58t32.5 76h182
q-44 -181 -170 -280q-128 -101 -302 -101q-57 0 -113.5 12.5t-107.5 34.5q-105 47 -186 169q-70 -119 -174 -167q-51 -22 -106.5 -34.5t-109.5 -12.5q-210 0 -352 142t-142 422q0 249 133 412q133 164 375 164z" />
    <glyph glyph-name="endash" unicode="&#x2013;" horiz-adv-x="1139" 
d="M-5 641h1147v-149h-1147v149z" />
    <glyph glyph-name="emdash" unicode="&#x2014;" horiz-adv-x="2048" 
d="M241 641h1565v-149h-1565v149z" />
    <glyph glyph-name="quotedblleft" unicode="&#x201c;" horiz-adv-x="682" 
d="M629 1387q-56 -9 -84 -61t-28 -122q0 -6 0.5 -11.5t2.5 -12.5h109v-219h-216v201q0 118 50 212q51 96 166 109v-96zM292 1387q-68 -14 -97 -99q-14 -45 -14 -85q0 -2 0.5 -4t0.5 -4v-6t1 -9h109v-219h-215v201q0 74 15.5 131.5t44 97.5t68 63t87.5 29v-96z" />
    <glyph glyph-name="quotedblright" unicode="&#x201d;" horiz-adv-x="682" 
d="M77 1043q76 14 100 108q7 27 9 52.5t0 45.5h-109v220h215v-202q0 -120 -49 -211q-50 -93 -166 -109v96zM413 1043q75 14 99 108q7 27 9.5 52.5t0.5 45.5h-109v220h216v-202q0 -120 -49 -212q-50 -95 -167 -108v96z" />
    <glyph glyph-name="quoteleft" unicode="&#x2018;" horiz-adv-x="455" 
d="M347 1387q-56 -9 -84 -61t-28 -123q0 -6 0.5 -11.5t2.5 -11.5h109v-219h-216v201q0 118 50 212q51 96 166 109v-96z" />
    <glyph glyph-name="quoteright" unicode="&#x2019;" horiz-adv-x="455" 
d="M169 1043q55 9 83 60q29 53 29 122v12.5t-2 11.5h-110v220h216v-202q0 -129 -53 -218q-52 -88 -163 -102v96z" />
    <glyph glyph-name="divide" unicode="&#xf7;" horiz-adv-x="1124" 
d="M456 21v222h213v-222h-213zM669 1025v-223h-213v223h213zM1083 607v-170h-1043v170h1043z" />
    <glyph glyph-name="lozenge" unicode="&#x25ca;" horiz-adv-x="1012" 
d="M503 1240q-73 -125 -145 -248.5t-145 -248.5q72 -130 145 -259.5t145 -258.5l291 518zM503 1510l446 -765l-446 -789l-443 789z" />
    <glyph glyph-name="ydieresis" unicode="&#xff;" horiz-adv-x="1024" 
d="M581 1445h189v-210h-189v210zM251 1445h189v-210h-189v210zM800 1072h200q-3 -8 -6 -17t-7 -20q-22 -61 -61 -168.5t-94 -265.5q-47 -132 -89.5 -248t-74.5 -201q-79 -207 -133.5 -331.5t-86.5 -169.5q-65 -89 -221 -89q-38 0 -59 3q-11 2 -23.5 4.5t-26.5 6.5v165
q23 -6 39.5 -10t28 -6t20.5 -2.5t17 -0.5q24 0 41.5 4.5t30.5 12.5t22.5 18t17.5 22q4 7 13 28t23 53q16 36 27 64t18 46q-97 270 -197.5 551t-197.5 551h205l286 -869z" />
    <glyph glyph-name="Ydieresis" unicode="&#x178;" horiz-adv-x="1366" 
d="M769 1816h189v-209h-189v209zM439 1816h189v-209h-189v209zM41 1469h235l420 -703q106 177 210.5 351.5t209.5 351.5h236l-555 -878v-591h-201v591z" />
    <glyph glyph-name="fraction" unicode="&#x2044;" horiz-adv-x="342" 
d="M683 1070l-923 -1395h-103l928 1395h98z" />
    <glyph glyph-name="Euro" unicode="&#x20ac;" horiz-adv-x="1524" 
d="M1147 494h-735q37 -122 137 -222q160 -160 389 -160q249 0 428 203v-166q-173 -149 -428 -149q-281 0 -471 190q-131 131 -171 304h-196l48 112h132q-1 13 -1.5 26.5t-0.5 27.5t0.5 27t1.5 27h-180l48 112h148q40 173 171 304q190 190 471 190q280 0 476 -196l-49 -113
q-183 197 -427 197q-228 0 -389 -159q-100 -100 -137 -223h875l-46 -112h-849q-1 -14 -1.5 -27t-0.5 -27t0.5 -27.5t1.5 -26.5h803z" />
    <glyph glyph-name="guilsinglleft" unicode="&#x2039;" horiz-adv-x="859" 
d="M609 136l-110 -94l-349 405v125l349 405l110 -95l-315 -373z" />
    <glyph glyph-name="guilsinglright" unicode="&#x203a;" horiz-adv-x="860" 
d="M610 447l-350 -405l-110 94l316 373q-16 20 -33 40l-34 40l-18 21q-22 26 -45 52.5t-46 54.5q-35 42 -71.5 84.5t-68.5 80.5l110 95l350 -405v-125z" />
    <glyph glyph-name="daggerdbl" unicode="&#x2021;" horiz-adv-x="1139" 
d="M80 87v159h385v651h-385v158h385v414h194v-414h386v-158h-386v-651h386v-159h-386v-415h-194v415h-385z" />
    <glyph glyph-name="periodcentered" unicode="&#xb7;" horiz-adv-x="569" 
d="M408 701q0 -54 -38 -92q-37 -37 -91 -37q-55 0 -92 37t-37 92q0 54 37 91q38 38 92 38t92 -38q37 -37 37 -91z" />
    <glyph glyph-name="quotesinglbase" unicode="&#x201a;" horiz-adv-x="455" 
d="M169 -207q68 12 97 96q15 45 15 87v12.5t-2 11.5h-110v220h216v-203q0 -119 -48 -209q-48 -91 -168 -112v97z" />
    <glyph glyph-name="quotedblbase" unicode="&#x201e;" horiz-adv-x="682" 
d="M77 -207q60 12 89 72q22 45 22 103q0 8 -0.5 16t-1.5 16h-109v220h215v-203q0 -57 -11.5 -109t-33.5 -97q-45 -92 -170 -115v97zM413 -207q68 12 97 96q15 45 15 87v12.5t-2 11.5h-110v220h216v-203q0 -115 -47 -207t-169 -114v97z" />
    <glyph glyph-name="perthousand" unicode="&#x2030;" horiz-adv-x="2048" 
d="M960 115q78 0 134 56q57 57 57 135t-57 133q-55 57 -134 57t-135 -56t-56 -134q0 -79 56 -135t135 -56zM1715 115q79 0 135 56q56 58 56 135q0 78 -56 134t-135 56q-77 0 -135 -56q-56 -56 -56 -134q0 -77 56 -135q58 -56 135 -56zM335 956q79 0 135 56q56 58 56 134
q0 79 -56 135t-135 56q-77 0 -135 -56q-56 -56 -56 -135q0 -76 56 -134q58 -56 135 -56zM1014 1483h113l-844 -1536h-114zM1715 626q133 0 227 -94q94 -93 94 -226t-94 -227t-227 -94q-134 0 -228 94q-93 95 -93 227q0 133 93 226q94 94 228 94zM1281 306q0 -133 -94 -227
t-227 -94q-134 0 -228 94q-92 93 -92 227t92 226q94 94 228 94q133 0 227 -94q94 -93 94 -226zM335 1467q133 0 227 -94t94 -227t-94 -227q-94 -93 -227 -93t-228 93q-93 95 -93 227q0 133 93 227q94 94 228 94z" />
    <glyph glyph-name="Acircumflex" unicode="&#xc2;" horiz-adv-x="1366" 
d="M782 1873l205 -290h-167l-134 190q-34 -48 -67 -95t-67 -95h-166l204 290h192zM909 603q-54 159 -111 322.5t-111 321.5q-60 -161 -118 -321.5t-118 -322.5h458zM582 1469h227l532 -1469h-220l-148 439h-579q-15 -42 -36 -100t-43 -119.5t-43 -119.5t-36 -100h-206z" />
    <glyph glyph-name="Ecircumflex" unicode="&#xca;" horiz-adv-x="1366" 
d="M814 1873l205 -290h-167l-134 190q-34 -48 -67 -95t-67 -95h-166l204 290h192zM175 1469h1071v-182h-876v-443h810v-172h-810v-495h891v-177h-1086v1469z" />
    <glyph glyph-name="Aacute" unicode="&#xc1;" horiz-adv-x="1366" 
d="M956 1873l-269 -290h-141l184 290h226zM909 603q-54 159 -111 322.5t-111 321.5q-60 -161 -118 -321.5t-118 -322.5h458zM582 1469h227l532 -1469h-220l-148 439h-579q-15 -42 -36 -100t-43 -119.5t-43 -119.5t-36 -100h-206z" />
    <glyph glyph-name="Edieresis" unicode="&#xcb;" horiz-adv-x="1366" 
d="M788 1816h189v-209h-189v209zM458 1816h189v-209h-189v209zM175 1469h1071v-182h-876v-443h810v-172h-810v-495h891v-177h-1086v1469z" />
    <glyph glyph-name="Egrave" unicode="&#xc8;" horiz-adv-x="1366" 
d="M857 1583h-140l-270 290h227zM175 1469h1071v-182h-876v-443h810v-172h-810v-495h891v-177h-1086v1469z" />
    <glyph glyph-name="Iacute" unicode="&#xcd;" horiz-adv-x="569" 
d="M545 1869l-269 -290h-141l184 290h226zM230 1469h203v-1469h-203v1469z" />
    <glyph glyph-name="Icircumflex" unicode="&#xce;" horiz-adv-x="569" 
d="M368 1877l205 -290h-167l-134 190q-34 -48 -67 -95t-67 -95h-166l204 290h192zM181 1469h203v-1469h-203v1469z" />
    <glyph glyph-name="Idieresis" unicode="&#xcf;" horiz-adv-x="569" 
d="M345 1812h189v-209h-189v209zM15 1812h189v-209h-189v209zM184 1469h203v-1469h-203v1469z" />
    <glyph glyph-name="Igrave" unicode="&#xcc;" horiz-adv-x="569" 
d="M409 1582h-140l-270 290h227zM123 1469h203v-1469h-203v1469z" />
    <glyph glyph-name="Oacute" unicode="&#xd3;" horiz-adv-x="1593" 
d="M1066 1913l-269 -290h-141l184 290h226zM1306 757q0 260 -136 415q-134 158 -368 158q-228 0 -370 -157q-144 -154 -144 -459q0 -243 123 -410t399 -167q262 0 378 188q118 187 118 432zM1366 1259q73 -98 109.5 -221.5t36.5 -277.5q0 -329 -167 -547
q-196 -256 -559 -256q-339 0 -533 224q-173 217 -173 546q0 147 38.5 276t109.5 234q47 61 107.5 111t132 86t152.5 55.5t170 19.5q389 0 576 -250z" />
    <glyph glyph-name="Ocircumflex" unicode="&#xd4;" horiz-adv-x="1593" 
d="M892 1913l205 -290h-167l-134 189q-34 -48 -67 -94.5t-67 -94.5h-166l204 290h192zM1306 757q0 260 -136 415q-134 158 -368 158q-228 0 -370 -157q-144 -154 -144 -459q0 -243 123 -410t399 -167q262 0 378 188q118 187 118 432zM1366 1259q73 -98 109.5 -221.5
t36.5 -277.5q0 -329 -167 -547q-196 -256 -559 -256q-339 0 -533 224q-173 217 -173 546q0 147 38.5 276t109.5 234q47 61 107.5 111t132 86t152.5 55.5t170 19.5q389 0 576 -250z" />
    <glyph glyph-name="Ograve" unicode="&#xd2;" horiz-adv-x="1593" 
d="M935 1623h-140l-270 290h227zM1306 757q0 260 -136 415q-134 158 -368 158q-228 0 -370 -157q-144 -154 -144 -459q0 -243 123 -410t399 -167q262 0 378 188q118 187 118 432zM1366 1259q73 -98 109.5 -221.5t36.5 -277.5q0 -329 -167 -547q-196 -256 -559 -256
q-339 0 -533 224q-173 217 -173 546q0 147 38.5 276t109.5 234q47 61 107.5 111t132 86t152.5 55.5t170 19.5q389 0 576 -250z" />
    <glyph glyph-name="Uacute" unicode="&#xda;" horiz-adv-x="1479" 
d="M1019 1873l-269 -290h-141l184 290h226zM374 1469v-908q0 -162 59 -265q89 -159 299 -159q125 0 211 45.5t132 126.5q23 46 35.5 110t12.5 142v908h204v-825q0 -268 -73 -416q-68 -124 -197 -195.5t-309 -71.5t-308.5 71.5t-196.5 195.5q-73 148 -73 416v825h204z" />
    <glyph glyph-name="Ucircumflex" unicode="&#xdb;" horiz-adv-x="1479" 
d="M845 1873l205 -290h-167l-134 190q-34 -48 -67 -95t-67 -95h-166l204 290h192zM374 1469v-908q0 -162 59 -265q89 -159 299 -159q125 0 211 45.5t132 126.5q23 46 35.5 110t12.5 142v908h204v-825q0 -268 -73 -416q-68 -124 -197 -195.5t-309 -71.5t-308.5 71.5
t-196.5 195.5q-73 148 -73 416v825h204z" />
    <glyph glyph-name="Ugrave" unicode="&#xd9;" horiz-adv-x="1479" 
d="M888 1583h-140l-270 290h227zM374 1469v-908q0 -162 59 -265q89 -159 299 -159q125 0 211 45.5t132 126.5q23 46 35.5 110t12.5 142v908h204v-825q0 -268 -73 -416q-68 -124 -197 -195.5t-309 -71.5t-308.5 71.5t-196.5 195.5q-73 148 -73 416v825h204z" />
    <glyph glyph-name="dotlessi" unicode="&#x131;" horiz-adv-x="569" 
d="M188 1067h185v-1067h-185v1067z" />
    <glyph glyph-name="circumflex" unicode="&#x2c6;" horiz-adv-x="682" 
d="M424 1502l205 -291h-167l-134 190q-34 -48 -67 -95t-67 -95h-166l204 291h192z" />
    <glyph glyph-name="tilde" unicode="&#x2dc;" horiz-adv-x="682" 
d="M376 1403q28 -12 51 -19t47 -7q54 0 79 35q14 20 18 57h107q-21 -128 -81 -177q-29 -23 -62.5 -35.5t-68.5 -12.5q-10 0 -25 2t-30.5 6t-31.5 8.5t-29 9.5q-12 5 -26.5 9.5t-26.5 9.5q-47 17 -76.5 25.5t-57.5 8.5q-71 0 -87 -93h-100q14 83 43 131q57 92 170 92
q17 0 35 -2t40.5 -8t49.5 -15.5t62 -24.5z" />
    <glyph glyph-name="macron" unicode="&#xaf;" horiz-adv-x="682" 
d="M7 1400h642v-120h-642v120z" />
    <glyph glyph-name="breve" unicode="&#x2d8;" horiz-adv-x="682" 
d="M114 1500q17 -67 47 -98q56 -59 173 -59q108 0 162 59q30 33 47 98h101q-20 -148 -103.5 -213.5t-226.5 -65.5q-178 0 -255 119q-40 59 -49 160h104z" />
    <glyph glyph-name="dotaccent" unicode="&#x2d9;" horiz-adv-x="682" 
d="M235 1445h189v-210h-189v210z" />
    <glyph glyph-name="ring" unicode="&#x2da;" horiz-adv-x="682" 
d="M328 1291q51 0 88 37t37 88t-37 88t-88 37q-50 0 -87 -37t-37 -88t37 -88t87 -37zM328 1626q86 0 148 -62t62 -148q0 -87 -62 -149q-61 -61 -148 -61t-148 61t-61 149q0 87 61 148q62 62 148 62z" />
    <glyph glyph-name="cedilla" unicode="&#xb8;" horiz-adv-x="682" 
d="M301 2h101l-93 -126q27 7 71 7q35 0 65 -10.5t51.5 -30.5t33.5 -49t12 -67q0 -76 -60 -131q-59 -55 -185 -55q-53 0 -110 15q-18 5 -39.5 12t-47.5 16l35 82q38 -14 60 -20q20 -5 38.5 -7.5t35.5 -2.5q19 0 34.5 2.5t29.5 7.5q51 20 51 75q0 32 -26 55t-70 23
q-23 0 -40.5 -4t-41.5 -13l-36 42z" />
    <glyph glyph-name="hungarumlaut" unicode="&#x2dd;" horiz-adv-x="682" 
d="M520 1502h218l-226 -293h-129zM187 1502h220l-229 -293h-128z" />
    <glyph glyph-name="ogonek" unicode="&#x2db;" horiz-adv-x="682" 
d="M511 2l-60 -50q-36 -30 -60 -52.5t-35 -38.5q-8 -15 -14 -34t-6 -36q0 -36 26 -63t77 -27q26 0 43.5 5t38.5 17v-133q-30 -12 -60 -21q-48 -13 -102 -13q-96 0 -149 56q-51 54 -51 126q0 41 15 78t43 69q23 26 59 55.5t84 61.5h151z" />
    <glyph glyph-name="caron" unicode="&#x2c7;" horiz-adv-x="682" 
d="M424 1211h-192l-204 291h166l134 -190q34 48 67 95t67 95h167z" />
    <glyph glyph-name="uni00A0" unicode="&#xa0;" horiz-adv-x="425" 
 />
    <glyph glyph-name="Lslash" unicode="&#x141;" horiz-adv-x="1139" 
d="M-24 483v155l180 112v719h200v-600q81 49 161.5 98.5t160.5 98.5v-160l-322 -196v-533h743v-177h-943v592z" />
    <glyph glyph-name="lslash" unicode="&#x142;" horiz-adv-x="455" 
d="M318 0h-182v611q-45 -26 -89 -53t-89 -53v138l178 111v715h182v-602q45 27 89 54.5t89 54.5v-138l-178 -109v-729z" />
    <glyph glyph-name="Scaron" unicode="&#x160;" horiz-adv-x="1366" 
d="M783 1623h-192l-204 290h166l134 -189q34 48 67 94.5t67 94.5h167zM288 475q7 -122 58 -202q51 -69 138.5 -107.5t209.5 -38.5q56 0 107.5 8.5t96.5 23.5q87 31 131.5 86.5t44.5 133.5q0 58 -19.5 101t-54.5 69q-38 24 -98.5 46.5t-138.5 40.5q-50 11 -99.5 22.5
t-99.5 22.5q-97 22 -167 46.5t-109 50.5q-140 92 -140 276q0 197 137 325q134 127 388 127q115 0 214 -28.5t178 -83.5q78 -56 120 -146.5t42 -210.5h-188q-15 114 -64 180q-47 55 -124.5 85t-183.5 30q-175 0 -252 -74t-77 -171q0 -51 23.5 -91t65.5 -65q61 -32 267 -80
q51 -11 103 -23.5t103 -23.5q151 -35 230 -93q140 -104 140 -300q0 -244 -178 -349q-175 -105 -412 -105q-275 0 -429 140q-155 140 -152 378h189z" />
    <glyph glyph-name="scaron" unicode="&#x161;" horiz-adv-x="1024" 
d="M600 1211h-192l-204 291h166l134 -190q34 48 67 95t67 95h167zM240 338q8 -90 45 -138q68 -87 235 -87q100 0 176 43q75 44 75 134q0 67 -61 103h1q-39 23 -154 51l-143 36q-69 18 -120 37t-83 39q-54 37 -84.5 88t-30.5 115q0 74 28.5 137t79.5 110q111 93 296 93
q242 0 350 -141q32 -45 48.5 -95t15.5 -101h-171q-2 31 -13.5 58.5t-29.5 52.5q-31 34 -85.5 52.5t-128.5 18.5q-102 0 -154 -39t-52 -102q0 -69 69 -111q20 -13 50 -23.5t67 -20.5q29 -7 59.5 -14.5t59.5 -14.5q192 -46 261 -91q51 -35 77.5 -89t26.5 -128
q0 -71 -28.5 -134t-79.5 -114q-54 -51 -137 -77.5t-194 -26.5q-239 0 -340 108q-98 111 -105 271h174z" />
    <glyph glyph-name="Zcaron" unicode="&#x17d;" horiz-adv-x="1251" 
d="M754 1583h-192l-204 290h166l134 -189q34 48 67 94.5t67 94.5h167zM47 167l898 1125h-832v177h1091v-173l-903 -1119h903v-177h-1157v167z" />
    <glyph glyph-name="zcaron" unicode="&#x17e;" horiz-adv-x="1024" 
d="M610 1211h-192l-204 291h166l134 -190q34 48 67 95t67 95h167zM52 144l632 765h-585v163h830v-149l-628 -760h647v-163h-896v144z" />
    <glyph glyph-name="brokenbar" unicode="&#xa6;" horiz-adv-x="532" 
d="M181 911v579h173v-579h-173zM354 0h-173v579h173v-579z" />
    <glyph glyph-name="Eth" unicode="&#xd0;" horiz-adv-x="1479" 
d="M366 866h419v-180h-419v-514h354q102 0 166 21q57 20 104.5 57t83.5 93q29 43 50.5 100.5t34.5 125.5q8 41 11.5 80t3.5 74q0 273 -109 422q-106 151 -347 151h-352v-430zM33 866h132v603h562q364 0 531 -251q121 -182 121 -459q0 -244 -93 -435q-157 -324 -528 -324
h-593v686h-132v180z" />
    <glyph glyph-name="eth" unicode="&#xf0;" horiz-adv-x="1139" 
d="M868 550q0 174 -76 285q-38 52 -98 81t-138 29q-129 0 -216 -107q-86 -107 -86 -298q0 -153 40 -245q74 -173 277 -173q122 0 209 111q88 110 88 317zM644 1064q42 -10 78 -33q-29 42 -55.5 76.5t-52.5 62.5q-27 29 -67.5 68t-96.5 91q-39 -27 -80.5 -56t-80.5 -56
l-81 69l164 116q-36 30 -74.5 61.5t-74.5 61.5l134 99q22 -17 41 -32t35 -28t36.5 -29.5t46.5 -38.5q37 26 75 52.5t75 52.5l77 -69l-151 -107q109 -105 197 -207.5t140 -190.5q132 -223 132 -471q0 -249 -133 -421q-132 -172 -383 -172q-238 0 -361 158t-123 404
q0 131 33.5 233.5t99.5 174.5q65 67 149.5 105t180.5 38q37 0 67 -2.5t53 -9.5z" />
    <glyph glyph-name="Yacute" unicode="&#xdd;" horiz-adv-x="1366" 
d="M969 1873l-269 -290h-141l184 290h226zM41 1469h235l420 -703q106 177 210.5 351.5t209.5 351.5h236l-555 -878v-591h-201v591z" />
    <glyph glyph-name="yacute" unicode="&#xfd;" horiz-adv-x="1024" 
d="M772 1502l-269 -291h-141l184 291h226zM800 1072h200q-3 -8 -6 -17t-7 -20q-22 -61 -61 -168.5t-94 -265.5q-47 -132 -89.5 -248t-74.5 -201q-79 -207 -133.5 -331.5t-86.5 -169.5q-65 -89 -221 -89q-38 0 -59 3q-11 2 -23.5 4.5t-26.5 6.5v165q23 -6 39.5 -10t28 -6
t20.5 -2.5t17 -0.5q24 0 41.5 4.5t30.5 12.5t22.5 18t17.5 22q4 7 13 28t23 53q16 36 27 64t18 46q-97 270 -197.5 551t-197.5 551h205l286 -869z" />
    <glyph glyph-name="Thorn" unicode="&#xde;" horiz-adv-x="1366" 
d="M950 599q116 59 116 221q0 34 -8.5 66.5t-24.5 62.5q-31 52 -84.5 81t-126.5 29h-453v-494h389q129 2 192 34zM174 1467h195v-234h455q110 0 196 -31.5t141 -85.5q53 -57 82 -135t29 -172q0 -168 -119 -295q-117 -126 -336 -126h-448v-388h-195v1467z" />
    <glyph glyph-name="thorn" unicode="&#xfe;" horiz-adv-x="1139" 
d="M878 522q0 134 -36 225q-67 174 -253 174q-112 0 -201 -93q-89 -92 -89 -288q0 -171 37 -261q66 -166 254 -166q132 0 210 108q78 110 78 301zM404 1022q89 61 218 61q103 0 185.5 -39t141.5 -111q57 -75 86.5 -173t29.5 -219q0 -303 -137 -445q-138 -142 -328 -142
q-131 0 -216 62q-23 17 -42.5 38.5t-37.5 50.5v-541h-176v1891h171v-541q28 38 54 64.5t51 43.5z" />
    <glyph glyph-name="hyphentwo" unicode="&#x2010;" horiz-adv-x="1300" 
d="M1108 126h-936v179h936v-179z" />
    <glyph glyph-name="hyphentwo" unicode="&#x2011;" horiz-adv-x="1300" 
d="M1108 126h-936v179h936v-179z" />
    <glyph glyph-name="multiply" unicode="&#xd7;" horiz-adv-x="1196" 
d="M99 903l120 120l378 -379l90 90l100 100l100 100l89 89l123 -120l-379 -380q41 -40 90 -89.5t100 -100t100 -99.5l89 -89l-123 -123l-379 378l-378 -378l-120 123l378 378z" />
    <glyph glyph-name="onesuperior" unicode="&#xb9;" horiz-adv-x="682" 
d="M470 570h-163v582h-221v109q125 10 167 32q61 31 84 133h133v-856z" />
    <glyph glyph-name="twosuperior" unicode="&#xb2;" horiz-adv-x="682" 
d="M255 947q74 36 121.5 64t70.5 46q45 35 45 94q0 65 -37 105t-117 40t-112 -51t-33 -124h-159q0 152 85 231q86 80 224 80q69 0 125.5 -17.5t98.5 -49.5q85 -68 85 -197q0 -118 -62 -180q-58 -58 -195 -125q-166 -76 -200 -151h457v-142h-642q0 148 70 236q68 86 175 141z
" />
    <glyph glyph-name="threesuperior" unicode="&#xb3;" horiz-adv-x="682" 
d="M155 833q8 -84 29 -114q37 -55 137 -55q97 0 137 42q42 42 42 102q0 46 -26.5 78t-74.5 49q-28 8 -63.5 12t-78.5 2v123q97 -2 138 12q73 26 73 104q0 24 -8 45t-25 37.5t-43 26t-62 9.5q-34 0 -62.5 -9t-49 -28.5t-32.5 -50.5t-12 -76h-147q0 138 82 213q82 76 220 76
q66 0 119.5 -17.5t93.5 -49.5q80 -69 80 -166q0 -69 -30.5 -113t-87.5 -61q83 -21 117 -75.5t34 -141.5q0 -64 -25.5 -113t-73.5 -84q-48 -33 -107.5 -51t-126.5 -18q-64 0 -120 17t-101 48q-90 66 -95 227h149z" />
    <glyph glyph-name="onehalf" unicode="&#xbd;" horiz-adv-x="1708" 
d="M473 570h-163v582h-220v109q63 5 104.5 13.5t61.5 18.5q63 33 85 133h132v-856zM271 -38l849 1469h137l-848 -1469h-138zM1194 375q147 73 191 111q45 38 45 95q0 69 -38 107t-116 38q-88 0 -122 -64q-18 -36 -23 -111h-158q0 126 74 218t240 92q69 0 124 -18t97 -52
q82 -70 82 -187q0 -51 -13.5 -94t-36.5 -75q-26 -32 -72 -65t-112 -66q-95 -44 -149.5 -85t-71.5 -78h455v-141h-641q10 134 61 223q52 87 184 152z" />
    <glyph glyph-name="onequarter" unicode="&#xbc;" horiz-adv-x="1708" 
d="M1353 319v338q-67 -85 -132.5 -169t-132.5 -169h265zM546 570h-162v582h-221v109q125 10 167 32q61 31 84 133h132v-856zM1259 1431h138l-876 -1469h-138zM1375 861h137v-542h114v-125h-114v-194h-156v194h-407v137z" />
    <glyph glyph-name="threequarters" unicode="&#xbe;" horiz-adv-x="1708" 
d="M1372 319v338q-67 -85 -132.5 -169t-132.5 -169h265zM1454 1431l-896 -1469h-138l895 1469h139zM224 833q0 -72 34 -118q38 -51 132 -51q47 0 81 11t55.5 30t31.5 44.5t10 55.5q0 47 -26 80t-73 50q-28 8 -63.5 12t-78.5 2v123q98 -2 139 12q71 26 71 106q0 41 -32 79
q-30 37 -106 37q-34 0 -62 -8.5t-48.5 -28t-32 -51t-13.5 -76.5h-146q0 72 22 127t63 90q87 72 217 72q65 0 118 -17.5t93 -49.5q80 -69 80 -166q0 -60 -29.5 -107.5t-89.5 -66.5q98 -31 133 -105q19 -39 19 -105q0 -133 -98 -204q-97 -69 -233 -69q-193 0 -270 119
q-47 77 -47 173h149zM1394 861h137v-542h114v-125h-114v-194h-156v194h-407v137z" />
    <glyph glyph-name="Gbreve" unicode="&#x11e;" horiz-adv-x="1593" 
d="M658 1911q17 -67 47 -98q56 -58 173 -58q107 0 162 58q30 33 47 98h100q-20 -147 -103 -212.5t-226 -65.5q-178 0 -255 119q-20 29 -32 69t-17 90h104zM1148 1427q219 -116 269 -404h-199q-18 80 -55.5 138t-93 95.5t-126.5 55.5t-157 18q-203 0 -343 -153
q-138 -153 -138 -454q0 -261 114 -425q116 -164 374 -164q198 0 328 115q64 57 97.5 150.5t35.5 220.5h-459v167h646v-787h-130l-47 187q-49 -54 -94 -91.5t-84 -60.5q-66 -36 -149.5 -55t-183.5 -19q-264 0 -449 169q-205 211 -205 582q0 184 51 331t149 256
q94 100 218.5 154t273.5 54q206 0 357 -80z" />
    <glyph glyph-name="gbreve" unicode="&#x11f;" horiz-adv-x="1139" 
d="M431 1500q17 -67 47 -98q56 -59 173 -59q108 0 162 59q30 33 47 98h100q-20 -148 -103 -213.5t-226 -65.5q-178 0 -255 119q-40 59 -49 160h104zM543 930q-188 0 -259 -177q-37 -93 -37 -249q0 -90 19 -158.5t54.5 -115t85.5 -70.5t111 -24q95 0 163.5 44.5t108.5 129.5
q19 47 31.5 108t12.5 122q0 199 -82 294q-82 96 -208 96zM731 1029q50 -34 102 -99v132h167v-974q0 -204 -60 -322q-111 -218 -423 -218q-173 0 -292 78q-117 75 -131 243h184q14 -73 52 -111q62 -60 191 -60q103 0 170.5 37t99.5 108q17 40 26 109.5t9 166.5v27
q-27 -41 -59 -70t-70 -49q-76 -40 -201 -40q-175 0 -306 123q-129 125 -129 409q0 268 130 421q131 150 319 150q127 0 221 -61z" />
    <glyph glyph-name="Idotaccent" unicode="&#x130;" horiz-adv-x="569" 
d="M183 1813h189v-209h-189v209zM179 1469h203v-1469h-203v1469z" />
    <glyph glyph-name="Scedilla" unicode="&#x15e;" horiz-adv-x="1366" 
d="M288 475q7 -122 58 -202q51 -69 138.5 -107.5t209.5 -38.5q56 0 107.5 8.5t96.5 23.5q87 31 131.5 86.5t44.5 133.5q0 120 -75 169q-38 26 -96.5 47.5t-139.5 40.5q-50 11 -99.5 22.5t-99.5 22.5q-97 22 -167 46.5t-109 50.5q-140 92 -140 276q0 197 137 325
q134 127 388 127q115 0 214 -28.5t178 -83.5q78 -56 120 -146.5t42 -210.5h-188q-15 114 -64 180q-47 55 -124.5 85t-183.5 30q-175 0 -252 -74t-77 -171q0 -51 23.5 -91t65.5 -65q61 -32 267 -80q51 -11 103 -23.5t103 -23.5q151 -35 230 -93q140 -104 140 -300
q0 -121 -45 -208.5t-133 -140.5q-85 -49 -184 -76t-199 -29q-15 -21 -29 -40.5t-29 -40.5q27 7 71 7q35 0 65 -10.5t51.5 -30.5t33.5 -49t12 -67q0 -76 -60 -131q-59 -55 -185 -55q-53 0 -110 15q-18 5 -39.5 12t-47.5 16l35 82q38 -14 60 -20q20 -5 38.5 -7.5t35.5 -2.5
q19 0 34.5 2.5t29.5 7.5q51 20 51 75q0 32 -26 55t-70 23q-23 0 -40.5 -4t-41.5 -13l-36 42l99 134q-208 0 -360 139q-155 140 -152 379h189z" />
    <glyph glyph-name="scedilla" unicode="&#x15f;" horiz-adv-x="1024" 
d="M240 338q8 -90 45 -138q68 -87 235 -87q100 0 176 43q75 44 75 134q0 67 -61 103h1q-39 23 -154 51l-143 36q-69 18 -120 37t-83 39q-54 37 -84.5 88t-30.5 115q0 74 28.5 137t79.5 110q111 93 296 93q242 0 350 -141q32 -45 48.5 -95t15.5 -101h-171q-2 31 -13.5 58.5
t-29.5 52.5q-31 34 -85.5 52.5t-128.5 18.5q-102 0 -154 -39t-52 -102q0 -69 69 -111q20 -13 50 -23.5t67 -20.5q29 -7 59.5 -14.5t59.5 -14.5q192 -46 261 -91q51 -35 77.5 -89t26.5 -128q0 -71 -28.5 -134t-79.5 -114q-53 -49 -130.5 -75.5t-170.5 -28.5q-15 -21 -31 -42
t-31 -42q30 8 72 8q35 0 65 -10.5t51.5 -30.5t33.5 -49t12 -67q0 -76 -60 -131q-59 -55 -185 -55q-53 0 -110 15q-18 5 -39.5 12t-47.5 16l35 82q38 -14 60 -20q20 -5 38.5 -7.5t35.5 -2.5q19 0 34.5 2.5t29.5 7.5q51 20 51 75q0 32 -26 55t-70 23q-23 0 -40.5 -4t-41.5 -13
l-36 42l100 136q-169 0 -270 108q-98 111 -105 271h174z" />
    <glyph glyph-name="currency" unicode="&#xa4;" horiz-adv-x="1139" 
d="M561 413q118 0 204 83q87 84 87 208t-87 208q-85 84 -204 84q-122 0 -207 -85q-86 -86 -86 -207q0 -120 85 -205q86 -86 208 -86zM74 1094l97 96l137 -136q55 39 115 61t129 22q84 0 145.5 -22t115.5 -63q32 32 68.5 69t67.5 69l97 -96l-139 -139q44 -57 66.5 -120
t22.5 -138q0 -57 -21 -121.5t-68 -123.5q32 -32 69.5 -68t69.5 -68l-97 -97l-136 135q-56 -41 -118.5 -63t-130.5 -22q-61 0 -124.5 19.5t-131.5 67.5l-31.5 -31.5t-37.5 -38t-37 -38t-31 -31.5l-97 99l139 136q-41 54 -62 115.5t-21 130.5q0 85 24 147.5t59 114.5z" />
    <glyph glyph-name="apostrophemod" unicode="&#x2bc;" horiz-adv-x="455" 
d="M169 1043q55 9 83 60q29 53 29 122v12.5t-2 11.5h-110v220h216v-202q0 -129 -53 -218q-52 -88 -163 -102v96z" />
    <glyph glyph-name="afii64937" unicode="&#x2bd;" horiz-adv-x="455" 
d="M385 947q-111 14 -163 102q-53 89 -53 218v202h216v-220h-109q-2 -6 -2.5 -11.5t-0.5 -12.5q0 -69 28 -122q14 -24 34.5 -39.5t49.5 -20.5v-96z" />
    <glyph glyph-name="firsttonechinese" unicode="&#x2c9;" horiz-adv-x="682" 
d="M7 1400h642v-120h-642v120z" />
    <glyph glyph-name="fourthtonechinese" unicode="&#x2cb;" horiz-adv-x="682" 
d="M465 1211h-140l-270 291h227z" />
    </font>
</defs>
</svg>
