<?xml version="1.0" standalone="no"?>
<!DOCTYPE svg PUBLIC "-//W3C//DTD SVG 1.1//EN" "http://www.w3.org/Graphics/SVG/1.1/DTD/svg11.dtd" >
<svg xmlns="http://www.w3.org/2000/svg" xmlns:xlink="http://www.w3.org/1999/xlink" version="1.1">
<metadata>
Created by FontForge 20190801 at Tue Feb 13 10:45:22 2018
 By root
Copyright (c) 2003 by Bitstream, Inc. All Rights Reserved.
DejaVu changes are in public domain
Changes by Saber Rastikerdar are in public domain.
Non-Arabic(Latin) glyphs and data in extended version are imported from Roboto font under the Apache License, Version 2.0.
</metadata>
<defs>
<font id="Vazir" horiz-adv-x="0" >
  <font-face 
    font-family="Vazir"
    font-weight="400"
    font-stretch="normal"
    units-per-em="2048"
    panose-1="2 11 6 3 3 8 4 2 2 4"
    ascent="1638"
    descent="-410"
    x-height="1082"
    cap-height="1456"
    bbox="-985 -955.378 3229 2354"
    underline-thickness="100"
    underline-position="-600"
    unicode-range="U+0002-FFFD"
  />
<missing-glyph horiz-adv-x="507" 
 />
    <glyph glyph-name="uni0622" unicode="&#x627;&#x653;" horiz-adv-x="633" 
d="M239 1266.03h173v-1265.13h-173v1265.13zM252 1459q-111 15 -203 -94l-101 106q118 170 288 143l149 -24q97 -16 219 46l66 -137q-129 -80 -277 -60z" />
    <glyph glyph-name="uni0623" unicode="&#x627;&#x654;" horiz-adv-x="477" 
d="M156 1204.7h173v-1201.84h-173v1201.84zM124 1423q-74 57 -74 161q0 88 59 150q69 73 177 73q75 0 141 -43l1 -131q-63 41 -128 41q-63 0 -97 -34q-28 -29 -28 -69q2 -60 95 -94q13 -5 24 -3l140 28v-126l-407 -98v123z" />
    <glyph glyph-name="afii57412" unicode="&#x648;&#x654;" horiz-adv-x="860" 
d="M332 980q-74 57 -74 161q0 88 59 150q69 73 177 73q75 0 141 -43l1 -131q-63 41 -128 41q-63 0 -97 -34q-28 -29 -28 -69q2 -60 95 -94q13 -5 24 -3l140 28v-126l-407 -98v123zM102 -350q433 80 508 363q-119 -15 -152 -15q-365 -2 -365 300q0 121 52 229q94 197 284 197
q206 0 294 -229q58 -149 58 -327q0 -560 -617 -676zM611 202q-22 333 -194 333q-96 0 -137 -120q-18 -54 -18 -102q0 -138 197 -137q73 1 152 26z" />
    <glyph glyph-name="uni0625" unicode="&#x627;&#x655;" horiz-adv-x="477" 
d="M129 -511q-74 57 -74 161q0 88 59 150q69 73 177 73q75 0 141 -43l1 -131q-63 41 -128 41q-63 0 -97 -34q-28 -29 -28 -69q2 -60 95 -94q13 -5 24 -3l140 28v-126l-407 -98v123zM151 1408h173v-1407h-173v1407z" />
    <glyph glyph-name="afii57414" unicode="&#x64a;&#x654;" horiz-adv-x="1504" 
d="M384 776q-74 57 -74 161q0 88 59 150q69 73 177 73q75 0 141 -43l1 -131q-63 41 -128 41q-63 0 -97 -34q-28 -29 -28 -69q2 -60 95 -94q13 -5 24 -3l140 28v-126l-407 -98v123zM278 84q0 -406 463 -408q178 0 318 65q73 34 128 90q55 57 55 129q0 57 -78 57l-114 1
q-249 1 -249 199q0 189 120 320q155 169 436 169h21v-193h-22q-160 0 -265 -73q-107 -75 -109 -184q0 -30 16 -43q17 -14 54 -14h119q237 1 237 -199q0 -290 -288 -422q-169 -77 -384 -77q-633 0 -633 580q0 214 109 472l159 -65q-93 -223 -93 -404z" />
    <glyph glyph-name="uni06C0" unicode="&#x647;&#x654;" horiz-adv-x="942" 
d="M181 1244q62 -13 116 -13q158 0 220 50q47 38 47 80q0 25 -37 26l-100 2q-117 3 -117 121q0 122 125 202q89 56 247 57l-9 -126q-227 -5 -242 -121l-1 -10l111 -4q117 -3 137 -101q19 -98 -67 -193q-98 -107 -321 -107q-60 0 -128 11zM462 644q-190 -166 -190 -293
q0 -167 203 -167q206 0 205 168q0 118 -218 292zM384 947q467 -342 467 -601q0 -189 -165 -291q-79 -50 -210 -51q-121 0 -207 43q-168 84 -168 299q0 207 228 429l-45 39z" />
    <glyph glyph-name="fi" unicode="fi" horiz-adv-x="1134" 
d="M202 0v939h-171v143h171v94q0 92 27.5 163t78.5 119.5t124.5 73.5t165.5 25q73 0 141.5 -17.5t141.5 -43.5l-31 -156q-45 18 -105.5 34t-132.5 16q-119 0 -171.5 -53.5t-52.5 -160.5v-94h221v-143h-221v-939h-186zM973 0h-186v1082h186v-1082z" />
    <glyph glyph-name="uniFBA5.fina" unicode="&#xfeea;&#x654;" horiz-adv-x="1053" arabic-form="final" 
d="M335 1175q62 -13 116 -13q158 0 220 50q47 38 47 80q0 25 -37 26l-100 2q-117 3 -117 121q0 122 125 202q89 56 247 57l-9 -126q-227 -5 -242 -121l-1 -10l111 -4q117 -3 137 -101q19 -98 -67 -193q-98 -107 -321 -107q-60 0 -128 11zM101 406q0 294 519 453l-9 46
l163 33l82 -591q23 -163 186 -163h20q20 0 20 -72v-24q0 -88 -20 -88h-24q-274 0 -323 227q-120 -105 -269 -105q-223 0 -311 146q-34 57 -34 138zM641 692q-362 -130 -362 -274q0 -122 161 -122q77 0 154 47q96 59 76 190l-21 133l-5 28z" />
    <glyph glyph-name="uniFDF2" unicode="&#x627;&#xfedf;&#xfee0;&#xfeea;" horiz-adv-x="2769" arabic-form="isolated" 
d="M1342 1673v402h88v-402h-88zM1423 1590q2 -41 3 -82q-1 -92 66 -92q70 1 71 101q0 38 -17 118l88 14q18 -62 18 -122q0 -202 -147 -203q-64 -1 -106 53q-30 -117 -152 -117q-135 0 -138 168q-1 60 13 110l78 -13q-10 -47 -9 -83q0 -84 68 -84q82 -1 86 113q2 51 1 119h77
zM101 406q0 294 519 453l-9 46l163 33l82 -591q23 -163 186 -163h20q20 0 20 -72v-24q0 -88 -20 -88h-24q-274 0 -323 227q-120 -105 -269 -105q-223 0 -311 146q-34 57 -34 138zM641 692q-362 -130 -362 -274q0 -122 161 -122q77 0 154 47q96 59 76 190l-21 133l-5 28z
M1084 0h-29q-58 0 -58 88v19q0 77 58 77h31q231 0 231 247v723h174v-723q0 -247 203 -247h11q31 0 31 -77v-19q0 -49 -9 -67q-8 -21 -22 -21h-8q-202 0 -304 143q-98 -143 -309 -143zM1696 0q-58 0 -58 88v19q0 77 58 77h58q196 0 196 211v922h174v-928q0 -389 -376 -389
h-52zM2424 1408h173v-1407h-173v1407z" />
    <glyph glyph-name="uniFE70" unicode="&#x20;&#x64b;" horiz-adv-x="791" arabic-form="isolated" 
d="M46 1076v104l455 186v-103zM46 1288v104l455 186v-103z" />
    <glyph glyph-name="uniFE72" unicode="&#x20;&#x64c;" horiz-adv-x="791" arabic-form="isolated" 
d="M307 1717q-20 -23 -20 -53q0 -57 66 -84q23 -10 74 -25q27 46 27 94q0 98 -81 97q-42 0 -66 -29zM38 1514q4 -226 134 -225q71 1 148 75q44 44 84 122l-30 6q-100 22 -137 70q-32 43 -32 93q0 51 17 85q44 85 147 85q72 1 115 -41q48 -46 48 -134q1 -40 -21 -109l30 -1
q29 -2 58 -2v-79q-40 1 -50 2l-76 7q-46 -111 -134 -187q-80 -70 -166 -70q-186 -1 -191 303h56z" />
    <glyph glyph-name="uniFE74" unicode="&#x20;&#x64d;" horiz-adv-x="791" arabic-form="isolated" 
d="M51 -446v104l456 186v-104zM51 -234v104l456 186v-104z" />
    <glyph glyph-name="uniFE76" unicode="&#x20;&#x64e;" horiz-adv-x="791" arabic-form="isolated" 
d="M15 1349v104l456 186v-104z" />
    <glyph glyph-name="uniFE78" unicode="&#x20;&#x64f;" horiz-adv-x="791" arabic-form="isolated" 
d="M532 1464q-61 0 -99 5l-31 4q-126 -178 -364 -190v78q186 8 277 137q-43 8 -89 33q-87 49 -87 135q1 64 36 107q46 55 127 55q61 0 106 -36q32 -26 47 -65q10 -28 10 -62q-1 -58 -26 -119l20 -2q39 -3 73 -2v-78zM359 1560l6 14q21 48 21 90q0 41 -25 61q-25 22 -55 22
q-45 1 -70 -31q-17 -23 -17 -54q0 -47 66 -77q23 -11 74 -25z" />
    <glyph glyph-name="uniFE7A" unicode="&#x20;&#x650;" horiz-adv-x="791" arabic-form="isolated" 
d="M62 -346v104l455 186v-103z" />
    <glyph glyph-name="uniFE7C" unicode="&#x20;&#x651;" horiz-adv-x="791" arabic-form="isolated" 
d="M327 1768q2 -41 3 -82q-1 -92 66 -92q70 1 71 101q0 38 -17 118l88 14q18 -62 18 -122q0 -202 -147 -203q-64 -1 -106 53q-30 -117 -152 -117q-135 0 -138 168q-1 60 13 110l78 -13q-10 -47 -9 -83q0 -84 68 -84q82 -1 86 113q2 51 1 119h77z" />
    <glyph glyph-name="uniFE7E" unicode="&#x20;&#x652;" horiz-adv-x="791" arabic-form="isolated" 
d="M117 1462q0 82 57 138.5t138.5 56.5t138.5 -56.5t57 -138.5t-57 -139t-138.5 -57t-138.5 57t-57 139zM204 1461q-1 -47 32 -79q32 -33 79 -33t79 33q32 32 33 79q-1 47 -33 79t-79 32t-79 -32q-33 -32 -32 -79z" />
    <glyph glyph-name="uniFEF5" unicode="&#xfedf;&#xfe82;" horiz-adv-x="1219" arabic-form="isolated" 
d="M213 1492q-111 15 -203 -94l-101 106q118 170 288 143l149 -24q97 -16 219 46l66 -137q-129 -80 -277 -60zM260 1348q289 -696 403 -1125q230 73 230 417v768h173v-769q0 -636 -670 -636q-138 0 -223 16v181q171 -22 327 -12q-115 400 -405 1066z" />
    <glyph glyph-name="uniFEF6" unicode="&#xfee0;&#xfe82;" horiz-adv-x="1293" arabic-form="final" 
d="M663 223q230 73 230 417v768h173v-859q0 -365 211 -365h25q20 0 20 -77v-19q0 -88 -20 -88h-39q-243 0 -308 226q-162 -223 -559 -223q-138 0 -223 16v181q168 -22 327 -12q-116 398 -405 1066l165 94q289 -696 403 -1125zM213 1492q-111 15 -203 -94l-101 106
q118 170 288 143l149 -24q97 -16 219 46l66 -137q-129 -80 -277 -60z" />
    <glyph glyph-name="uniFEF7" unicode="&#xfedf;&#xfe84;" horiz-adv-x="1219" arabic-form="isolated" 
d="M77 1499q-74 57 -74 161q0 88 59 150q69 73 177 73q75 0 141 -43l1 -131q-63 41 -128 41q-63 0 -97 -34q-28 -29 -28 -69q2 -60 95 -94q13 -5 24 -3l140 28v-126l-407 -98v123zM260 1348q289 -696 403 -1125q230 73 230 417v768h173v-769q0 -636 -670 -636
q-138 0 -223 16v181q171 -22 327 -12q-115 400 -405 1066z" />
    <glyph glyph-name="uniFEF8" unicode="&#xfee0;&#xfe84;" horiz-adv-x="1293" arabic-form="final" 
d="M663 223q230 73 230 417v768h173v-859q0 -365 211 -365h25q20 0 20 -77v-19q0 -88 -20 -88h-39q-243 0 -308 226q-162 -223 -559 -223q-138 0 -223 16v181q168 -22 327 -12q-116 398 -405 1066l165 94q289 -696 403 -1125zM77 1499q-74 57 -74 161q0 88 59 150
q69 73 177 73q75 0 141 -43l1 -131q-63 41 -128 41q-63 0 -97 -34q-28 -29 -28 -69q2 -60 95 -94q13 -5 24 -3l140 28v-126l-407 -98v123z" />
    <glyph glyph-name="uniFEF9" unicode="&#xfedf;&#xfe88;" horiz-adv-x="1219" arabic-form="isolated" 
d="M169 -503q-74 57 -74 161q0 88 59 150q69 73 177 73q75 0 141 -43l1 -131q-63 41 -128 41q-63 0 -97 -34q-28 -29 -28 -69q2 -60 95 -94q13 -5 24 -3l140 28v-126l-407 -98v123zM260 1348q289 -696 403 -1125q230 73 230 417v768h173v-769q0 -636 -670 -636
q-138 0 -223 16v181q171 -22 327 -12q-115 400 -405 1066z" />
    <glyph glyph-name="uniFEFA" unicode="&#xfee0;&#xfe88;" horiz-adv-x="1293" arabic-form="final" 
d="M169 -503q-74 57 -74 161q0 88 59 150q69 73 177 73q75 0 141 -43l1 -131q-63 41 -128 41q-63 0 -97 -34q-28 -29 -28 -69q2 -60 95 -94q13 -5 24 -3l140 28v-126l-407 -98v123zM663 223q230 73 230 417v768h173v-859q0 -365 211 -365h25q20 0 20 -77v-19q0 -88 -20 -88
h-39q-243 0 -308 226q-162 -223 -559 -223q-138 0 -223 16v181q168 -22 327 -12q-116 398 -405 1066l165 94q289 -696 403 -1125z" />
    <glyph glyph-name="uniFEFB" unicode="&#xfedf;&#xfe8e;" horiz-adv-x="1219" arabic-form="isolated" 
d="M260 1348q289 -696 403 -1125q230 73 230 417v768h173v-769q0 -636 -670 -636q-138 0 -223 16v181q171 -22 327 -12q-115 400 -405 1066z" />
    <glyph glyph-name="uniFEFC" unicode="&#xfee0;&#xfe8e;" horiz-adv-x="1293" arabic-form="final" 
d="M663 223q230 73 230 417v768h173v-859q0 -365 211 -365h25q20 0 20 -77v-19q0 -88 -20 -88h-39q-243 0 -308 226q-162 -223 -559 -223q-138 0 -223 16v181q168 -22 327 -12q-116 398 -405 1066l165 94q289 -696 403 -1125z" />
    <glyph glyph-name="uni0651064B" unicode="&#x64b;&#x651;" 
d="M334 1258v104l455 186v-103zM334 1470v104l455 186v-103zM615 1227q2 -41 3 -82q-1 -92 66 -92q70 1 71 101q0 38 -17 118l88 14q18 -62 18 -122q0 -202 -147 -203q-64 -1 -106 53q-30 -117 -152 -117q-135 0 -138 168q-1 60 13 110l78 -13q-10 -47 -9 -83q0 -84 68 -84
q82 -1 86 113q2 51 1 119h77z" />
    <glyph glyph-name="uni0651064C" unicode="&#x64c;&#x651;" 
d="M582 1789q-20 -23 -20 -53q0 -57 66 -84q23 -10 74 -25q27 46 27 94q0 98 -81 97q-42 0 -66 -29zM313 1586q4 -226 134 -225q71 1 148 75q44 44 84 122l-30 6q-100 22 -137 70q-32 43 -32 93q0 51 17 85q44 85 147 85q72 1 115 -41q48 -46 48 -134q1 -40 -21 -109l30 -1
q29 -2 58 -2v-79q-40 1 -50 2l-76 7q-46 -111 -134 -187q-80 -70 -166 -70q-186 -1 -191 303h56zM632 1221q2 -41 3 -82q-1 -92 66 -92q70 1 71 101q0 38 -17 118l88 14q18 -62 18 -122q0 -202 -147 -203q-64 -1 -106 53q-30 -117 -152 -117q-135 0 -138 168q-1 60 13 110
l78 -13q-10 -47 -9 -83q0 -84 68 -84q82 -1 86 113q2 51 1 119h77z" />
    <glyph glyph-name="uni064B0651" unicode="&#x64d;&#x651;" 
d="M513 1753q2 -41 3 -82q-1 -92 66 -92q70 1 71 101q0 38 -17 118l88 14q18 -62 18 -122q0 -202 -147 -203q-64 -1 -106 53q-30 -117 -152 -117q-135 0 -138 168q-1 60 13 110l78 -13q-10 -47 -9 -83q0 -84 68 -84q82 -1 86 113q2 51 1 119h77zM283 869v104l455 186v-103z
M283 1081v104l455 186v-103z" />
    <glyph glyph-name="uni0651064E" unicode="&#x64e;&#x651;" 
d="M318 1457v104l456 186v-104zM620 1435q2 -41 3 -82q-1 -92 66 -92q70 1 71 101q0 38 -17 118l88 14q18 -62 18 -122q0 -202 -147 -203q-64 -1 -106 53q-30 -117 -152 -117q-135 0 -138 168q-1 60 13 110l78 -13q-10 -47 -9 -83q0 -84 68 -84q82 -1 86 113q2 51 1 119h77z
" />
    <glyph glyph-name="uni0651064F" unicode="&#x64f;&#x651;" 
d="M809 1451q-61 0 -99 5l-31 4q-126 -178 -364 -190v78q186 8 277 137q-43 8 -89 33q-87 49 -87 135q1 64 36 107q46 55 127 55q61 0 106 -36q32 -26 47 -65q10 -28 10 -62q-1 -58 -26 -119l20 -2q39 -3 73 -2v-78zM636 1547l6 14q21 48 21 90q0 41 -25 61q-25 22 -55 22
q-45 1 -70 -31q-17 -23 -17 -54q0 -47 66 -77q23 -11 74 -25zM617 1228q2 -41 3 -82q-1 -92 66 -92q70 1 71 101q0 38 -17 118l88 14q18 -62 18 -122q0 -202 -147 -203q-64 -1 -106 53q-30 -117 -152 -117q-135 0 -138 168q-1 60 13 110l78 -13q-10 -47 -9 -83q0 -84 68 -84
q82 -1 86 113q2 51 1 119h77z" />
    <glyph glyph-name="uni064E0651" unicode="&#x650;&#x651;" 
d="M605 1640q2 -41 3 -82q-1 -92 66 -92q70 1 71 101q0 38 -17 118l88 14q18 -62 18 -122q0 -202 -147 -203q-64 -1 -106 53q-30 -117 -152 -117q-135 0 -138 168q-1 60 13 110l78 -13q-10 -47 -9 -83q0 -84 68 -84q82 -1 86 113q2 51 1 119h77zM354 999v104l456 186v-104z
" />
    <glyph glyph-name="uni0654064E" unicode="&#x64e;&#x654;" 
d="M324 1725v104l456 186v-104zM450 1319q-74 57 -74 161q0 88 59 150q69 73 177 73q75 0 141 -43l1 -131q-63 41 -128 41q-63 0 -97 -34q-28 -29 -28 -69q2 -60 95 -94q13 -5 24 -3l140 28v-126l-407 -98v123z" />
    <glyph glyph-name="uni0654064F" unicode="&#x64f;&#x654;" 
d="M787 1675q-61 0 -99 5l-31 4q-126 -178 -364 -190v78q186 8 277 137q-43 8 -89 33q-87 49 -87 135q1 64 36 107q46 55 127 55q61 0 106 -36q32 -26 47 -65q10 -28 10 -62q-1 -58 -26 -119l20 -2q39 -3 73 -2v-78zM614 1771l6 14q21 48 21 90q0 41 -25 61q-25 22 -55 22
q-45 1 -70 -31q-17 -23 -17 -54q0 -47 66 -77q23 -11 74 -25zM443 1101q-74 57 -74 161q0 88 59 150q69 73 177 73q75 0 141 -43l1 -131q-63 41 -128 41q-63 0 -97 -34q-28 -29 -28 -69q2 -60 95 -94q13 -5 24 -3l140 28v-126l-407 -98v123z" />
    <glyph glyph-name="uni066E.fina" unicode="&#x66e;" horiz-adv-x="1901" 
d="M860 0q-761 0 -761 486q0 135 55 257l157 -69q-33 -84 -33 -161q0 -329 577 -329q520 0 643 130q34 36 34 122q0 34 -2 57l-5 81l165 20l16 -215q6 -85 50 -141q43 -54 140 -54h13q20 0 20 -77v-19q0 -88 -20 -88h-13q-211 0 -300 177q-167 -177 -732 -177h-4z" />
    <glyph glyph-name="uni066F.fina" unicode="&#x66f;" horiz-adv-x="1526" 
d="M747 -520q-646 0 -645 581q0 209 91 429l159 -65q-74 -190 -74 -362q0 -406 476 -406q462 0 494 344h-149q-366 0 -366 298q0 121 51 229q94 197 285 197q303 0 349 -541h116q20 0 20 -77v-19q0 -88 -20 -88l-118 1q-57 -520 -669 -521zM1250 185q-22 350 -193 351
q-95 1 -137 -120q-18 -53 -18 -102q0 -129 187 -129h161z" />
    <glyph glyph-name="uni06A1.init" unicode="&#x6a1;" horiz-adv-x="914" 
d="M446 372q-325 0 -329 271q0 43 8 83q30 158 113.5 244t207.5 86q84 0 147 -41q167 -108 202 -418q7 -65 7 -123q0 -283 -135 -384q-120 -90 -422 -90h-252q-58 0 -58 88v19q0 77 58 77h263q381 0 390 198q0 9 -1 18q-92 -28 -199 -28zM282 670q0 -125 177 -124
q84 0 170 26q-14 116 -51 196q-49 108 -139 108q-104 0 -145 -134q-12 -38 -12 -72z" />
    <glyph glyph-name="uni06A1.medi" unicode="&#x6a1;" horiz-adv-x="1022" 
d="M421 641q-60 -59 -60 -117q0 -61 64 -135q73 -85 112 -85q38 0 112 85q64 74 64 134q0 73 -91 146q-51 42 -91 42t-110 -70zM533 129q-174 -129 -499 -129h-41q-58 0 -58 88v19q0 77 58 77h41q232 1 311 33q-159 133 -159 318q0 175 198 312q70 49 153 49q81 0 141 -36
q211 -128 211 -337q0 -174 -161 -306q93 -33 270 -33h32q20 0 20 -77v-19q0 -88 -20 -88h-30q-295 0 -467 129z" />
    <glyph glyph-name="uni06A1.fina" unicode="&#x6a1;" horiz-adv-x="1995" 
d="M1394 641q-60 -59 -60 -117q0 -61 64 -135q73 -85 112 -85q38 0 112 85q64 74 63 134q1 73 -90 146q-51 42 -91 42t-110 -70zM1506 129q-187 -129 -642 -129h-34q-731 0 -731 486q0 135 55 257l157 -69q-33 -84 -33 -161q0 -329 563 -329q367 0 477 33q-159 133 -159 318
q0 175 198 312q70 49 153 49q81 0 141 -36q211 -128 211 -337q0 -174 -161 -306q93 -33 270 -33h32q20 0 20 -77v-19q0 -88 -20 -88h-30q-295 0 -467 129z" />
    <glyph glyph-name="uni06CA.fina" unicode="&#x6ca;" horiz-adv-x="873" 
d="M426 1036l136 136l137 -137l-136 -136zM122 1036l136 136l137 -137l-136 -136zM605 0h-146q-366 0 -366 298q0 121 52 229q94 197 284 197q313 0 349 -541h103q20 0 20 -85v-10q0 -88 -20 -88l-115 1q-75 -409 -602 -509l-62 158q431 80 503 350zM611 184
q-23 350 -194 351q-94 1 -137 -120q-18 -53 -18 -102q0 -129 187 -129h162z" />
    <glyph glyph-name="uni06D5.fina" unicode="&#x6d5;" horiz-adv-x="1053" 
d="M101 406q0 294 519 453l-9 46l163 33l82 -591q23 -163 186 -163h20q20 0 20 -72v-24q0 -88 -20 -88h-24q-274 0 -323 227q-120 -105 -269 -105q-223 0 -311 146q-34 57 -34 138zM641 692q-362 -130 -362 -274q0 -122 161 -122q77 0 154 47q96 59 76 190l-21 133l-5 28z
" />
    <glyph glyph-name="uniFB56" unicode="&#x67e;" horiz-adv-x="1807" arabic-form="isolated" 
d="M861 0q-761 0 -761 486q0 135 55 257l157 -69q-33 -83 -33 -159q0 -331 563 -331q501 0 632 96q64 47 64 165q0 90 -36 246l163 41q50 -151 50 -272q0 -237 -138 -334q-181 -126 -713 -126h-3zM785.604 -569.373l143.373 142.303l142.303 -142.303l-143.373 -142.303z
M950.375 -300.816l143.373 142.303l142.303 -141.232l-143.373 -143.373zM626.182 -300.816l142.303 142.303l142.303 -141.232l-143.373 -143.373z" />
    <glyph glyph-name="uniFB57" unicode="&#x67e;" horiz-adv-x="1901" arabic-form="final" 
d="M767.604 -569.373l143.373 142.303l142.303 -142.303l-143.373 -142.303zM932.375 -300.816l143.373 142.303l142.303 -141.232l-143.373 -143.373zM608.182 -300.816l142.303 142.303l142.303 -141.232l-143.373 -143.373zM860 0q-761 0 -761 486q0 135 55 257l157 -69
q-33 -84 -33 -161q0 -329 577 -329q520 0 643 130q34 36 34 122q0 34 -2 57l-5 81l165 20l16 -215q6 -85 50 -141q43 -54 140 -54h13q20 0 20 -77v-19q0 -88 -20 -88h-13q-211 0 -300 177q-167 -177 -732 -177h-4z" />
    <glyph glyph-name="uniFB58" unicode="&#x67e;" horiz-adv-x="673" arabic-form="initial" 
d="M69 0h-76q-58 0 -58 88v19q0 77 58 77h76q160 0 217 32q85 50 85 209q0 119 -37 265l163 41q49 -156 49 -303q0 -245 -140 -351q-102 -77 -337 -77zM134.604 -569.373l143.373 142.303l142.303 -142.303l-143.373 -142.303zM299.375 -300.816l143.373 142.303
l142.303 -141.232l-143.373 -143.373zM-24.8184 -300.816l142.303 142.303l142.303 -141.232l-143.373 -143.373z" />
    <glyph glyph-name="uniFB59" unicode="&#x67e;" horiz-adv-x="717" arabic-form="medial" 
d="M134.604 -569.373l143.373 142.303l142.303 -142.303l-143.373 -142.303zM299.375 -300.816l143.373 142.303l142.303 -141.232l-143.373 -143.373zM-24.8184 -300.816l142.303 142.303l142.303 -141.232l-143.373 -143.373zM745 88q0 -88 -20 -88h-10q-198 0 -273 141
q-99 -141 -346 -141h-104q-57 0 -57 88v19q0 77 57 77h99q231 0 256 132q6 35 6 83q0 50 -3 95l-5 81l164 20l16 -231q13 -180 192 -180h8q20 0 20 -86v-10z" />
    <glyph glyph-name="uniFB7A" unicode="&#x686;" horiz-adv-x="1366" arabic-form="isolated" 
d="M125 -145q0 584 716 743l10 2q-26 10 -114 45q-195 79 -267 79q-113 0 -186 -94l-28 -36l-154 76l16 28q126 207 353 208h1q126 0 303 -86q312 -152 483 -159l-13 -174q-176 -11 -292 -37q-658 -153 -658 -579q0 -369 531 -369q217 0 417 96l36 -174q-199 -97 -467 -97
q-391 0 -558 181q-129 139 -129 347zM680.604 -215.373l143.373 142.303l142.303 -142.303l-143.373 -142.303zM845.375 53.1836l143.373 142.303l142.303 -141.232l-143.373 -143.373zM521.182 53.1836l142.303 142.303l142.303 -141.232l-143.373 -143.373z" />
    <glyph glyph-name="uniFB7B" unicode="&#x686;" horiz-adv-x="1386" arabic-form="final" 
d="M559.799 -265.244l127.244 126.295l126.295 -126.295l-127.244 -126.295zM706.035 -26.8984l127.244 126.295l126.295 -125.346l-127.244 -127.244zM418.311 -26.8984l126.295 126.295l126.295 -125.346l-127.244 -127.244zM1258 661l-13 -174q-103 -8 -195 -21v-8
q0 -275 281 -274h63q20 0 20 -72v-24q0 -88 -20 -88h-63q-434 0 -435 424v12q-601 -151 -601 -565q0 -369 531 -369q217 0 417 96l36 -174q-199 -97 -467 -97q-391 0 -558 181q-129 139 -129 347q0 584 716 743l10 2q-26 10 -114 45q-195 79 -267 79q-113 0 -186 -94
l-28 -36l-154 76l16 28q127 208 354 208q126 0 303 -86q312 -152 483 -159z" />
    <glyph glyph-name="uniFB7C" unicode="&#x686;" horiz-adv-x="1337" arabic-form="initial" 
d="M-7 0q-58 0 -58 88v19q0 77 58 77h60q330 0 816 251l74 38q-26 7 -216 84q-196 79 -267 79q-113 0 -186 -94l-28 -36l-154 76l16 28q126 207 353 208q127 0 304 -86q312 -152 483 -159l-2 -174q-115 -10 -424 -173q-429 -226 -781 -226h-48zM548.604 -569.373
l143.373 142.303l142.303 -142.303l-143.373 -142.303zM713.375 -300.816l143.373 142.303l142.303 -141.232l-143.373 -143.373zM389.182 -300.816l142.303 142.303l142.303 -141.232l-143.373 -143.373z" />
    <glyph glyph-name="uniFB7D" unicode="&#x686;" horiz-adv-x="1351" arabic-form="medial" 
d="M548.604 -569.373l143.373 142.303l142.303 -142.303l-143.373 -142.303zM713.375 -300.816l143.373 142.303l142.303 -141.232l-143.373 -143.373zM389.182 -300.816l142.303 142.303l142.303 -141.232l-143.373 -143.373zM943 473q-24 6 -216 84q-196 79 -267 79
q-113 0 -186 -94l-28 -36l-154 76l16 28q126 207 353 208q127 0 304 -86q312 -152 483 -159l-2 -174q-82 -6 -207 -69q4 -146 278 -146h43q21 0 21 -72v-24q0 -88 -21 -88h-59q-365 0 -397 268q-39 -19 -82 -42q-429 -226 -781 -226h-48q-58 0 -58 88v19q0 77 58 77h60
q330 0 816 251z" />
    <glyph glyph-name="uniFB8A" unicode="&#x698;" horiz-adv-x="840" arabic-form="isolated" 
d="M601 532q83 -202 83 -375q1 -545 -635 -665l-62 158q524 98 526 502q1 136 -78 320zM310.604 1125.43l142.303 142.303l143.373 -143.372l-142.303 -142.303zM475.375 856.875l142.303 142.304l143.373 -143.373l-142.303 -142.303zM151.182 856.875l141.232 142.304
l143.373 -143.373l-142.303 -142.303z" />
    <glyph glyph-name="uniFB8B" unicode="&#x698;" horiz-adv-x="870" arabic-form="final" 
d="M310.604 1125.43l142.303 142.303l143.373 -143.372l-142.303 -142.303zM475.375 856.875l142.303 142.304l143.373 -143.373l-142.303 -142.303zM151.182 856.875l141.232 142.304l143.373 -143.373l-142.303 -142.303zM678 53q-58 -453 -629 -561l-62 158
q524 98 526 502q1 136 -78 320l166 60l62 -194q50 -154 188 -154h28q20 0 20 -72v-24q0 -88 -20 -88h-17q-145 0 -184 53z" />
    <glyph glyph-name="uniFB8E" unicode="&#x6a9;" horiz-adv-x="1848" arabic-form="isolated" 
d="M1499 660q130 -141 128 -310q-7 -350 -613 -350h-181q-734 0 -734 486q0 135 55 257l157 -69q-33 -85 -33 -163q2 -327 555 -327h180q435 0 434 191q0 98 -103 195q-154 143 -274 237q-114 89 -114 187q0 129 141 183l693 263v-181l-673 -250q265 -223 382 -349z" />
    <glyph glyph-name="uniFB8F" unicode="&#x6a9;" horiz-adv-x="1924" arabic-form="final" 
d="M831 0q-732 0 -732 486q0 135 55 257l157 -69q-33 -85 -33 -163q2 -327 553 -327h182q433 0 434 191q0 98 -104 195q-159 148 -273 237t-114 187q0 130 140 183l693 263v-181l-673 -250q262 -219 383 -349q80 -87 129 -225q89 -251 288 -251h16q20 0 20 -77v-19
q0 -88 -20 -88h-16q-217 0 -349 177q-114 -177 -554 -177h-182z" />
    <glyph glyph-name="uniFB90" unicode="&#x6a9;" horiz-adv-x="950" arabic-form="initial" 
d="M219 1009q261 -219 382 -349q130 -141 127 -310q-6 -350 -592 -350h-143q-58 0 -58 88v19q0 77 58 77h142q413 0 414 191q0 98 -104 195q-153 143 -273 237q-114 89 -114 187q0 130 140 183l693 263v-181l-672 -250v0z" />
    <glyph glyph-name="uniFB91" unicode="&#x6a9;" horiz-adv-x="1027" arabic-form="medial" 
d="M219 1009q261 -219 382 -349q81 -88 129 -225q88 -251 288 -251h16q20 0 20 -77v-19q0 -88 -20 -88h-16q-217 0 -349 177q-114 -177 -533 -177h-143q-58 0 -58 88v19q0 77 58 77h142q413 0 414 191q0 98 -104 195q-153 143 -273 237q-114 89 -114 187q0 130 140 183
l693 263v-181z" />
    <glyph glyph-name="uniFB92" unicode="&#x6af;" horiz-adv-x="1848" arabic-form="isolated" 
d="M1499 660q130 -141 128 -310q-7 -350 -613 -350h-181q-734 0 -734 486q0 135 55 257l157 -69q-33 -85 -33 -163q2 -327 555 -327h180q435 0 434 191q0 98 -103 195q-154 143 -274 237q-114 89 -114 187q0 129 141 183l693 263v-181l-673 -250q265 -223 382 -349z
M1783.55 1582.96l-782.131 -301.725v128.394l782.131 301.725v-128.394z" />
    <glyph glyph-name="uniFB93" unicode="&#x6af;" horiz-adv-x="1924" arabic-form="final" 
d="M1783.55 1582.96l-782.131 -301.725v128.394l782.131 301.725v-128.394zM831 0q-732 0 -732 486q0 135 55 257l157 -69q-33 -85 -33 -163q2 -327 553 -327h182q433 0 434 191q0 98 -104 195q-159 148 -273 237t-114 187q0 130 140 183l693 263v-181l-673 -250
q262 -219 383 -349q80 -87 129 -225q89 -251 288 -251h16q20 0 20 -77v-19q0 -88 -20 -88h-16q-217 0 -349 177q-114 -177 -554 -177h-182z" />
    <glyph glyph-name="uniFB94" unicode="&#x6af;" horiz-adv-x="950" arabic-form="initial" 
d="M219 1009q261 -219 382 -349q130 -141 127 -310q-6 -350 -592 -350h-143q-58 0 -58 88v19q0 77 58 77h142q413 0 414 191q0 98 -104 195q-153 143 -273 237q-114 89 -114 187q0 130 140 183l693 263v-181l-672 -250v0zM883.551 1585.96l-782.131 -301.725v128.394
l782.131 301.725v-128.394z" />
    <glyph glyph-name="uniFB95" unicode="&#x6af;" horiz-adv-x="1027" arabic-form="medial" 
d="M883.551 1585.96l-782.131 -301.725v128.394l782.131 301.725v-128.394zM219 1009q261 -219 382 -349q81 -88 129 -225q88 -251 288 -251h16q20 0 20 -77v-19q0 -88 -20 -88h-16q-217 0 -349 177q-114 -177 -533 -177h-143q-58 0 -58 88v19q0 77 58 77h142q413 0 414 191
q0 98 -104 195q-153 143 -273 237q-114 89 -114 187q0 130 140 183l693 263v-181z" />
    <glyph glyph-name="uniFB9E" unicode="&#x6ba;" horiz-adv-x="1455" arabic-form="isolated" 
d="M1294 -147q-149 -303 -567 -303q-626 0 -625 581q0 209 91 429l159 -65q-74 -190 -74 -362q0 -406 456 -406q445 0 447 445q0 184 -91 370l173 60q88 -240 88 -470q0 -162 -57 -279z" />
    <glyph glyph-name="uniFB9F" unicode="&#x6ba;" horiz-adv-x="1539" arabic-form="final" 
d="M1350 56q-1 -159 -56 -273q-149 -303 -567 -303q-626 0 -625 581q0 209 91 429l159 -65q-74 -190 -74 -362q0 -406 456 -406q445 0 447 445q0 184 -91 370l173 60l73 -228q39 -120 193 -120h19q20 0 20 -72v-24q0 -88 -20 -88h-15q-124 0 -183 56z" />
    <glyph glyph-name="uniFBAC" unicode="&#x6be;" horiz-adv-x="1395" arabic-form="initial" 
d="M95 0h-102q-58 0 -58 88v19q0 77 58 77h265h50q-42 29 -68 59q-77 89 -76 198q0 122 85 220q104 121 266 121q149 0 248 -94q85 -79 86 -203q0 -181 -158 -278q161 -23 208 -23q68 0 105 14q109 43 110 158q2 241 -571 517l87 153q669 -325 663 -671q-2 -148 -90 -245
q-98 -109 -304 -109q-156 -1 -383 71q-243 -72 -421 -72zM621 332q68 66 71 145q0 52 -29 84q-54 59 -139 59q-102 0 -154 -87q-24 -40 -25 -96q0 -63 61 -118q28 -25 61 -40q24 -12 50 -18q15 6 30 15q42 26 74 56z" />
    <glyph glyph-name="uniFBAD" unicode="&#x6be;" horiz-adv-x="992" arabic-form="medial" 
d="M573 -315q1 499 405 499h22q20 0 20 -77v-19q0 -88 -20 -88h-24q-285 0 -247 -421l-123 -119q-340 161 -401 540h-212q-58 0 -58 88v19q0 77 58 77h199q19 399 153 543q82 88 203.5 88t193 -86.5t70.5 -240.5q-3 -171 -132 -322q-135 -159 -312 -167q34 -204 205 -314z
M359 183q117 3 209 101q81 87 81 210q0 130 -99 133q-170 6 -191 -444z" />
    <glyph glyph-name="uniFBE8" unicode="&#x649;" horiz-adv-x="646" arabic-form="initial" 
d="M69 0h-76q-58 0 -58 88v19q0 77 58 77h76q160 0 217 32q85 50 85 209q0 119 -37 265l163 41q49 -156 49 -303q0 -245 -140 -351q-102 -77 -337 -77z" />
    <glyph glyph-name="uniFBE9" unicode="&#x649;" horiz-adv-x="717" arabic-form="medial" 
d="M745 88q0 -88 -20 -88h-10q-198 0 -273 141q-99 -141 -346 -141h-104q-57 0 -57 88v19q0 77 57 77h99q231 0 256 132q6 35 6 83q0 50 -3 95l-5 81l164 20l16 -231q13 -180 192 -180h8q20 0 20 -86v-10z" />
    <glyph glyph-name="uniFBFC" unicode="&#x6cc;" horiz-adv-x="1504" arabic-form="isolated" 
d="M278 84q0 -406 463 -408q178 0 318 65q73 34 128 90q55 57 55 129q0 57 -78 57l-114 1q-249 1 -249 199q0 189 120 320q155 169 436 169h21v-193h-22q-160 0 -265 -73q-107 -75 -109 -184q0 -30 16 -43q17 -14 54 -14h119q237 1 237 -199q0 -290 -288 -422
q-169 -77 -384 -77q-633 0 -633 580q0 214 109 472l159 -65q-93 -223 -93 -404z" />
    <glyph glyph-name="uniFBFD" unicode="&#x6cc;" horiz-adv-x="1503" arabic-form="final" 
d="M1509 184q21 0 21 -77v-19q0 -88 -21 -88h-142h-15q47 -36 47 -113q0 -153 -181 -270q-210 -136 -492 -136q-625 0 -624 582q0 194 72 370l159 -65q-55 -150 -55 -306q0 -403 447 -405q171 0 316 65q115 52 164 126q23 35 23 67q0 86 -132 86h-153q-58 6 -79 94
q-10 42 -10 62q0 23 11 27h644z" />
    <glyph glyph-name="uniFBFE" unicode="&#x6cc;" horiz-adv-x="682" arabic-form="initial" 
d="M69 0h-76q-58 0 -58 88v19q0 77 58 77h76q160 0 217 32q85 50 85 209q0 119 -37 265l163 41q49 -156 49 -303q0 -245 -140 -351q-102 -77 -337 -77zM303.165 -316.796l145.513 145.513l146.583 -146.582l-145.513 -145.513zM-22.0986 -316.796l145.513 145.513
l146.583 -146.582l-145.513 -145.513z" />
    <glyph glyph-name="uniFBFF" unicode="&#x6cc;" horiz-adv-x="717" arabic-form="medial" 
d="M303.165 -316.796l145.513 145.513l146.583 -146.582l-145.513 -145.513zM-22.0986 -316.796l145.513 145.513l146.583 -146.582l-145.513 -145.513zM745 88q0 -88 -20 -88h-10q-198 0 -273 141q-99 -141 -346 -141h-104q-57 0 -57 88v19q0 77 57 77h99q231 0 256 132
q6 35 6 83q0 50 -3 95l-5 81l164 20l16 -231q13 -180 192 -180h8q20 0 20 -86v-10z" />
    <glyph glyph-name="uniFDFC" unicode="&#xfdfc;" horiz-adv-x="3546" arabic-form="isolated" 
d="M1113 100l3 1308h172l-1 -1109q0 -140 -9 -271q-42 -548 -577 -548q-600 0 -598 561q0 202 83 405l159 -65q-67 -170 -67 -343q0 -381 424 -381q409 0 411 443zM3146 473q83 -202 83 -375q1 -545 -635 -665l-62 158q524 98 526 502q1 136 -78 320zM2093 0h-76
q-58 0 -58 88v19q0 77 58 77h76q160 0 217 32q85 50 85 209q0 119 -37 265l163 41q49 -156 49 -303q0 -245 -140 -351q-102 -77 -337 -77zM2169.17 -281.796l145.513 145.513l146.583 -146.582l-145.513 -145.513zM1843.9 -281.796l145.513 145.513l146.583 -146.582
l-145.513 -145.513zM2002 88q1 -88 -20 -88h-21q-368 0 -368 434v974h174v-972q0 -252 197 -252h18q20 0 20 -77v-19z" />
    <glyph glyph-name="uniFE71" unicode="&#xfe71;" horiz-adv-x="791" arabic-form="medial" 
d="M499 0q-58 0 -58 88v19q0 77 58 77h302q20 0 20 -77v-19q0 -88 -20 -88h-302zM241 0q-58 0 -58 88v19q0 77 58 77h302q20 0 20 -77v-19q0 -88 -20 -88h-302zM-7 0q-58 0 -58 88v19q0 77 58 77h302q20 0 20 -77v-19q0 -88 -20 -88h-302zM46 1076v104l455 186v-103z
M46 1288v104l455 186v-103z" />
    <glyph glyph-name="uniFE77" unicode="&#xfe77;" horiz-adv-x="791" arabic-form="medial" 
d="M499 0q-58 0 -58 88v19q0 77 58 77h302q20 0 20 -77v-19q0 -88 -20 -88h-302zM241 0q-58 0 -58 88v19q0 77 58 77h302q20 0 20 -77v-19q0 -88 -20 -88h-302zM-7 0q-58 0 -58 88v19q0 77 58 77h302q20 0 20 -77v-19q0 -88 -20 -88h-302zM15 1349v104l456 186v-104z" />
    <glyph glyph-name="uniFE79" unicode="&#xfe79;" horiz-adv-x="791" arabic-form="medial" 
d="M499 0q-58 0 -58 88v19q0 77 58 77h302q20 0 20 -77v-19q0 -88 -20 -88h-302zM241 0q-58 0 -58 88v19q0 77 58 77h302q20 0 20 -77v-19q0 -88 -20 -88h-302zM-7 0q-58 0 -58 88v19q0 77 58 77h302q20 0 20 -77v-19q0 -88 -20 -88h-302zM532 1464q-61 0 -99 5l-31 4
q-126 -178 -364 -190v78q186 8 277 137q-43 8 -89 33q-87 49 -87 135q1 64 36 107q46 55 127 55q61 0 106 -36q32 -26 47 -65q10 -28 10 -62q-1 -58 -26 -119l20 -2q39 -3 73 -2v-78zM359 1560l6 14q21 48 21 90q0 41 -25 61q-25 22 -55 22q-45 1 -70 -31q-17 -23 -17 -54
q0 -47 66 -77q23 -11 74 -25z" />
    <glyph glyph-name="uniFE7B" unicode="&#xfe7b;" horiz-adv-x="791" arabic-form="medial" 
d="M499 0q-58 0 -58 88v19q0 77 58 77h302q20 0 20 -77v-19q0 -88 -20 -88h-302zM241 0q-58 0 -58 88v19q0 77 58 77h302q20 0 20 -77v-19q0 -88 -20 -88h-302zM-7 0q-58 0 -58 88v19q0 77 58 77h302q20 0 20 -77v-19q0 -88 -20 -88h-302zM62 -452v104l455 186v-103z" />
    <glyph glyph-name="uniFE7D" unicode="&#xfe7d;" horiz-adv-x="791" arabic-form="medial" 
d="M499 0q-58 0 -58 88v19q0 77 58 77h302q20 0 20 -77v-19q0 -88 -20 -88h-302zM241 0q-58 0 -58 88v19q0 77 58 77h302q20 0 20 -77v-19q0 -88 -20 -88h-302zM-7 0q-58 0 -58 88v19q0 77 58 77h302q20 0 20 -77v-19q0 -88 -20 -88h-302zM327 1768q2 -41 3 -82
q-1 -92 66 -92q70 1 71 101q0 38 -17 118l88 14q18 -62 18 -122q0 -202 -147 -203q-64 -1 -106 53q-30 -117 -152 -117q-135 0 -138 168q-1 60 13 110l78 -13q-10 -47 -9 -83q0 -84 68 -84q82 -1 86 113q2 51 1 119h77z" />
    <glyph glyph-name="uniFE7F" unicode="&#xfe7f;" horiz-adv-x="791" arabic-form="medial" 
d="M499 0q-58 0 -58 88v19q0 77 58 77h302q20 0 20 -77v-19q0 -88 -20 -88h-302zM241 0q-58 0 -58 88v19q0 77 58 77h302q20 0 20 -77v-19q0 -88 -20 -88h-302zM-7 0q-58 0 -58 88v19q0 77 58 77h302q20 0 20 -77v-19q0 -88 -20 -88h-302zM117 1462q0 82 57 138.5
t138.5 56.5t138.5 -56.5t57 -138.5t-57 -139t-138.5 -57t-138.5 57t-57 139zM204 1461q-1 -47 32 -79q32 -33 79 -33t79 33q32 32 33 79q-1 47 -33 79t-79 32t-79 -32q-33 -32 -32 -79z" />
    <glyph glyph-name="uniFE80" unicode="&#x621;" horiz-adv-x="868" arabic-form="isolated" 
d="M118 12v178q111 72 199 98q-179 93 -179 253q1 135 72 217q102 118 265 118q168 0 258 -90l-57 -138q-79 57 -189 57q-87 -1 -137 -50q-46 -44 -46 -114q0 -91 172 -170l253 57l28 -172q-252 -30 -639 -244z" />
    <glyph glyph-name="uniFE81" unicode="&#x622;" horiz-adv-x="633" arabic-form="isolated" 
d="M239 1266.03h173v-1265.13h-173v1265.13zM252 1459q-111 15 -203 -94l-101 106q118 170 288 143l149 -24q97 -16 219 46l66 -137q-129 -80 -277 -60z" />
    <glyph glyph-name="uniFE82" unicode="&#x622;" horiz-adv-x="531" arabic-form="final" 
d="M252 1459q-111 15 -203 -94l-101 106q118 170 288 143l149 -24q97 -16 219 46l66 -137q-129 -80 -277 -60zM559 88q1 -88 -20 -88h-21q-368 0 -368 434v794h174v-792q0 -252 197 -252h18q20 0 20 -77v-19z" />
    <glyph glyph-name="uniFE83" unicode="&#x623;" horiz-adv-x="477" arabic-form="isolated" 
d="M156 1204.7h173v-1201.84h-173v1201.84zM124 1423q-74 57 -74 161q0 88 59 150q69 73 177 73q75 0 141 -43l1 -131q-63 41 -128 41q-63 0 -97 -34q-28 -29 -28 -69q2 -60 95 -94q13 -5 24 -3l140 28v-126l-407 -98v123z" />
    <glyph glyph-name="uniFE84" unicode="&#x623;" horiz-adv-x="531" arabic-form="final" 
d="M134 1423q-74 57 -74 161q0 88 59 150q69 73 177 73q75 0 141 -43l1 -131q-63 41 -128 41q-63 0 -97 -34q-28 -29 -28 -69q2 -60 95 -94q13 -5 24 -3l140 28v-126l-407 -98v123zM559 88q1 -88 -20 -88h-21q-368 0 -368 434v794h174v-792q0 -252 197 -252h18q20 0 20 -77
v-19z" />
    <glyph glyph-name="uniFE85" unicode="&#x624;" horiz-adv-x="860" arabic-form="isolated" 
d="M332 980q-74 57 -74 161q0 88 59 150q69 73 177 73q75 0 141 -43l1 -131q-63 41 -128 41q-63 0 -97 -34q-28 -29 -28 -69q2 -60 95 -94q13 -5 24 -3l140 28v-126l-407 -98v123zM102 -350q433 80 508 363q-119 -15 -152 -15q-365 -2 -365 300q0 121 52 229q94 197 284 197
q206 0 294 -229q58 -149 58 -327q0 -560 -617 -676zM611 202q-22 333 -194 333q-96 0 -137 -120q-18 -54 -18 -102q0 -138 197 -137q73 1 152 26z" />
    <glyph glyph-name="uniFE86" unicode="&#x624;" horiz-adv-x="873" arabic-form="final" 
d="M605 0h-146q-366 0 -366 298q0 121 52 229q94 197 284 197q313 0 349 -541h103q20 0 20 -85v-10q0 -88 -20 -88l-115 1q-75 -409 -602 -509l-62 158q431 80 503 350zM611 184q-23 350 -194 351q-94 1 -137 -120q-18 -53 -18 -102q0 -129 187 -129h162zM332 980
q-74 57 -74 161q0 88 59 150q69 73 177 73q75 0 141 -43l1 -131q-63 41 -128 41q-63 0 -97 -34q-28 -29 -28 -69q2 -60 95 -94q13 -5 24 -3l140 28v-126l-407 -98v123z" />
    <glyph glyph-name="uniFE87" unicode="&#x625;" horiz-adv-x="477" arabic-form="isolated" 
d="M129 -511q-74 57 -74 161q0 88 59 150q69 73 177 73q75 0 141 -43l1 -131q-63 41 -128 41q-63 0 -97 -34q-28 -29 -28 -69q2 -60 95 -94q13 -5 24 -3l140 28v-126l-407 -98v123zM151 1408h173v-1407h-173v1407z" />
    <glyph glyph-name="uniFE88" unicode="&#x625;" horiz-adv-x="531" arabic-form="final" 
d="M559 88q1 -88 -20 -88h-21q-368 0 -368 434v974h174v-972q0 -252 197 -252h18q20 0 20 -77v-19zM198 -505q-74 57 -74 161q0 88 59 150q69 73 177 73q75 0 141 -43l1 -131q-63 41 -128 41q-63 0 -97 -34q-28 -29 -28 -69q2 -60 95 -94q13 -5 24 -3l140 28v-126l-407 -98
v123z" />
    <glyph glyph-name="uniFE89" unicode="&#x626;" horiz-adv-x="1504" arabic-form="isolated" 
d="M384 776q-74 57 -74 161q0 88 59 150q69 73 177 73q75 0 141 -43l1 -131q-63 41 -128 41q-63 0 -97 -34q-28 -29 -28 -69q2 -60 95 -94q13 -5 24 -3l140 28v-126l-407 -98v123zM278 84q0 -406 463 -408q178 0 318 65q73 34 128 90q55 57 55 129q0 57 -78 57l-114 1
q-249 1 -249 199q0 189 120 320q155 169 436 169h21v-193h-22q-160 0 -265 -73q-107 -75 -109 -184q0 -30 16 -43q17 -14 54 -14h119q237 1 237 -199q0 -290 -288 -422q-169 -77 -384 -77q-633 0 -633 580q0 214 109 472l159 -65q-93 -223 -93 -404z" />
    <glyph glyph-name="uniFE8A" unicode="&#x626;" horiz-adv-x="1503" arabic-form="final" 
d="M1509 184q21 0 21 -77v-19q0 -88 -21 -88h-142h-15q47 -36 47 -113q0 -153 -181 -270q-210 -136 -492 -136q-625 0 -624 582q0 194 72 370l159 -65q-55 -150 -55 -306q0 -403 447 -405q171 0 316 65q115 52 164 126q23 35 23 67q0 86 -132 86h-153q-58 6 -79 94
q-10 42 -10 62q0 23 11 27h644zM505 595q-74 57 -74 161q0 88 59 150q69 73 177 73q75 0 141 -43l1 -131q-63 41 -128 41q-63 0 -97 -34q-28 -29 -28 -69q2 -60 95 -94q13 -5 24 -3l140 28v-126l-407 -98v123z" />
    <glyph glyph-name="uniFE8B" unicode="&#x626;" horiz-adv-x="596" arabic-form="initial" 
d="M69 0h-76q-58 0 -58 88v19q0 77 58 77h76q110 0 167 32q85 50 85 209q0 119 -37 265l163 41q49 -156 49 -303q0 -245 -140 -351q-102 -77 -287 -77zM133 962q-74 57 -74 161q0 88 59 150q69 73 177 73q75 0 141 -43l1 -131q-63 41 -128 41q-63 0 -97 -34q-28 -29 -28 -69
q2 -60 95 -94q13 -5 24 -3l140 28v-126l-407 -98v123z" />
    <glyph glyph-name="uniFE8C" unicode="&#x626;" horiz-adv-x="665" arabic-form="medial" 
d="M695 88q0 -88 -20 -88h-10q-198 0 -273 141q-99 -141 -296 -141h-104q-57 0 -57 88v19q0 77 57 77h99q181 0 206 132q6 35 6 83q0 50 -3 95l-5 81l164 20l16 -231q13 -180 192 -180h8q20 0 20 -86v-10zM160 856q-74 57 -74 161q0 88 59 150q69 73 177 73q75 0 141 -43
l1 -131q-63 41 -128 41q-63 0 -97 -34q-28 -29 -28 -69q2 -60 95 -94q13 -5 24 -3l140 28v-126l-407 -98v123z" />
    <glyph glyph-name="uniFE8D" unicode="&#x627;" horiz-adv-x="477" arabic-form="isolated" 
d="M151 1408h173v-1407h-173v1407z" />
    <glyph glyph-name="uniFE8E" unicode="&#x627;" horiz-adv-x="531" arabic-form="final" 
d="M559 88q1 -88 -20 -88h-21q-368 0 -368 434v974h174v-972q0 -252 197 -252h18q20 0 20 -77v-19z" />
    <glyph glyph-name="uniFE8F" unicode="&#x628;" horiz-adv-x="1807" arabic-form="isolated" 
d="M861 0q-761 0 -761 486q0 135 55 257l157 -69q-33 -83 -33 -159q0 -331 563 -331q501 0 632 96q64 47 64 165q0 90 -36 246l163 41q50 -151 50 -272q0 -237 -138 -334q-181 -126 -713 -126h-3zM792.202 -316.796l145.513 145.513l146.583 -146.582l-145.513 -145.513z
" />
    <glyph glyph-name="uniFE90" unicode="&#x628;" horiz-adv-x="1901" arabic-form="final" 
d="M860 0q-761 0 -761 486q0 135 55 257l157 -69q-33 -84 -33 -161q0 -329 577 -329q520 0 643 130q34 36 34 122q0 34 -2 57l-5 81l165 20l16 -215q6 -85 50 -141q43 -54 140 -54h13q20 0 20 -77v-19q0 -88 -20 -88h-13q-211 0 -300 177q-167 -177 -732 -177h-4z
M762.202 -316.796l145.513 145.513l146.583 -146.582l-145.513 -145.513z" />
    <glyph glyph-name="uniFE91" unicode="&#x628;" horiz-adv-x="596" arabic-form="initial" 
d="M69 0h-76q-58 0 -58 88v19q0 77 58 77h76q110 0 167 32q85 50 85 209q0 119 -37 265l163 41q49 -156 49 -303q0 -245 -140 -351q-102 -77 -287 -77zM72.2021 -316.796l145.513 145.513l146.583 -146.582l-145.513 -145.513z" />
    <glyph glyph-name="uniFE92" unicode="&#x628;" horiz-adv-x="667" arabic-form="medial" 
d="M695 88q0 -88 -20 -88h-10q-198 0 -273 141q-99 -141 -296 -141h-104q-57 0 -57 88v19q0 77 57 77h99q181 0 206 132q6 35 6 83q0 50 -3 95l-5 81l164 20l16 -231q13 -180 192 -180h8q20 0 20 -86v-10zM111.202 -316.796l145.513 145.513l146.583 -146.582
l-145.513 -145.513z" />
    <glyph glyph-name="uniFE93" unicode="&#x629;" horiz-adv-x="942" arabic-form="isolated" 
d="M462 644q-190 -166 -190 -293q0 -167 203 -167q206 0 205 168q0 118 -218 292zM384 947q467 -342 467 -601q0 -189 -165 -291q-79 -50 -210 -51q-121 0 -207 43q-168 84 -168 299q0 207 228 429l-45 39zM482.165 1260.2l145.513 145.513l146.583 -146.582
l-145.513 -145.513zM156.901 1260.2l145.513 145.513l146.583 -146.582l-145.513 -145.513z" />
    <glyph glyph-name="uniFE94" unicode="&#x629;" horiz-adv-x="1053" arabic-form="final" 
d="M101 406q0 294 519 453l-9 46l163 33l82 -591q23 -163 186 -163h20q20 0 20 -72v-24q0 -88 -20 -88h-24q-274 0 -323 227q-120 -105 -269 -105q-223 0 -311 146q-34 57 -34 138zM641 692q-362 -130 -362 -274q0 -122 161 -122q77 0 154 47q96 59 76 190l-21 133l-5 28z
M611.165 1224.2l145.513 145.513l146.583 -146.582l-145.513 -145.513zM285.901 1224.2l145.513 145.513l146.583 -146.582l-145.513 -145.513z" />
    <glyph glyph-name="uniFE95" unicode="&#x62a;" horiz-adv-x="1807" arabic-form="isolated" 
d="M861 0q-761 0 -761 486q0 135 55 257l157 -69q-33 -83 -33 -159q0 -331 563 -331q501 0 632 96q64 47 64 165q0 90 -36 246l163 41q50 -151 50 -272q0 -237 -138 -334q-181 -126 -713 -126h-3zM927.165 942.204l145.513 145.513l146.583 -146.582l-145.513 -145.513z
M601.901 942.204l145.513 145.513l146.583 -146.582l-145.513 -145.513z" />
    <glyph glyph-name="uniFE96" unicode="&#x62a;" horiz-adv-x="1901" arabic-form="final" 
d="M860 0q-761 0 -761 486q0 135 55 257l157 -69q-33 -84 -33 -161q0 -329 577 -329q520 0 643 130q34 36 34 122q0 34 -2 57l-5 81l165 20l16 -215q6 -85 50 -141q43 -54 140 -54h13q20 0 20 -77v-19q0 -88 -20 -88h-13q-211 0 -300 177q-167 -177 -732 -177h-4z
M940.165 942.204l145.513 145.513l146.583 -146.582l-145.513 -145.513zM614.901 942.204l145.513 145.513l146.583 -146.582l-145.513 -145.513z" />
    <glyph glyph-name="uniFE97" unicode="&#x62a;" horiz-adv-x="699" arabic-form="initial" 
d="M69 0h-76q-58 0 -58 88v19q0 77 58 77h76q160 0 217 32q85 50 85 209q0 119 -37 265l163 41q49 -156 49 -303q0 -245 -140 -351q-102 -77 -337 -77zM319.165 1045.2l145.513 145.513l146.583 -146.582l-145.513 -145.513zM-6.09863 1045.2l145.513 145.513
l146.583 -146.582l-145.513 -145.513z" />
    <glyph glyph-name="uniFE98" unicode="&#x62a;" horiz-adv-x="717" arabic-form="medial" 
d="M745 88q0 -88 -20 -88h-10q-198 0 -273 141q-99 -141 -346 -141h-104q-57 0 -57 88v19q0 77 57 77h99q231 0 256 132q6 35 6 83q0 50 -3 95l-5 81l164 20l16 -231q13 -180 192 -180h8q20 0 20 -86v-10zM316.165 962.204l145.513 145.513l146.583 -146.582
l-145.513 -145.513zM-9.09863 962.204l145.513 145.513l146.583 -146.582l-145.513 -145.513z" />
    <glyph glyph-name="uniFE99" unicode="&#x62b;" horiz-adv-x="1807" arabic-form="isolated" 
d="M861 0q-761 0 -761 486q0 135 55 257l157 -69q-33 -83 -33 -159q0 -331 563 -331q501 0 632 96q64 47 64 165q0 90 -36 246l163 41q50 -151 50 -272q0 -237 -138 -334q-181 -126 -713 -126h-3zM765.604 1148.43l142.303 142.303l143.373 -143.372l-142.303 -142.303z
M930.375 879.875l142.303 142.304l143.373 -143.373l-142.303 -142.303zM606.182 879.875l141.232 142.304l143.373 -143.373l-142.303 -142.303z" />
    <glyph glyph-name="uniFE9A" unicode="&#x62b;" horiz-adv-x="1901" arabic-form="final" 
d="M860 0q-761 0 -761 486q0 135 55 257l157 -69q-33 -84 -33 -161q0 -329 577 -329q520 0 643 130q34 36 34 122q0 34 -2 57l-5 81l165 20l16 -215q6 -85 50 -141q43 -54 140 -54h13q20 0 20 -77v-19q0 -88 -20 -88h-13q-211 0 -300 177q-167 -177 -732 -177h-4z
M774.604 1146.43l142.303 142.303l143.373 -143.372l-142.303 -142.303zM939.375 877.875l142.303 142.304l143.373 -143.373l-142.303 -142.303zM615.182 877.875l141.232 142.304l143.373 -143.373l-142.303 -142.303z" />
    <glyph glyph-name="uniFE9B" unicode="&#x62b;" horiz-adv-x="678" arabic-form="initial" 
d="M69 0h-76q-58 0 -58 88v19q0 77 58 77h76q160 0 217 32q85 50 85 209q0 119 -37 265l163 41q49 -156 49 -303q0 -245 -140 -351q-102 -77 -337 -77zM139.604 1299.43l142.303 142.303l143.373 -143.372l-142.303 -142.303zM304.375 1030.88l142.303 142.304
l143.373 -143.373l-142.303 -142.303zM-19.8184 1030.88l141.232 142.304l143.373 -143.373l-142.303 -142.303z" />
    <glyph glyph-name="uniFE9C" unicode="&#x62b;" horiz-adv-x="717" arabic-form="medial" 
d="M745 88q0 -88 -20 -88h-10q-198 0 -273 141q-99 -141 -346 -141h-104q-57 0 -57 88v19q0 77 57 77h99q231 0 256 132q6 35 6 83q0 50 -3 95l-5 81l164 20l16 -231q13 -180 192 -180h8q20 0 20 -86v-10zM144.604 1202.43l142.303 142.303l143.373 -143.372
l-142.303 -142.303zM309.375 933.875l142.303 142.304l143.373 -143.373l-142.303 -142.303zM-14.8184 933.875l141.232 142.304l143.373 -143.373l-142.303 -142.303z" />
    <glyph glyph-name="uniFE9D" unicode="&#x62c;" horiz-adv-x="1366" arabic-form="isolated" 
d="M125 -145q0 584 716 743l10 2q-26 10 -114 45q-195 79 -267 79q-113 0 -186 -94l-28 -36l-154 76l16 28q126 207 353 208h1q126 0 303 -86q312 -152 483 -159l-13 -174q-176 -11 -292 -37q-658 -153 -658 -579q0 -369 531 -369q217 0 417 96l36 -174q-199 -97 -467 -97
q-391 0 -558 181q-129 139 -129 347zM659.202 -64.7959l145.513 145.513l146.583 -146.582l-145.513 -145.513z" />
    <glyph glyph-name="uniFE9E" unicode="&#x62c;" horiz-adv-x="1386" arabic-form="final" 
d="M1258 661l-13 -174q-103 -8 -195 -21v-8q0 -275 281 -274h63q20 0 20 -72v-24q0 -88 -20 -88h-63q-434 0 -435 424v12q-601 -151 -601 -565q0 -369 531 -369q217 0 417 96l36 -174q-199 -97 -467 -97q-391 0 -558 181q-129 139 -129 347q0 584 716 743l10 2
q-26 10 -114 45q-195 79 -267 79q-113 0 -186 -94l-28 -36l-154 76l16 28q127 208 354 208q126 0 303 -86q312 -152 483 -159zM566.202 -104.796l145.513 145.513l146.583 -146.582l-145.513 -145.513z" />
    <glyph glyph-name="uniFE9F" unicode="&#x62c;" horiz-adv-x="1337" arabic-form="initial" 
d="M561.202 -316.796l145.513 145.513l146.583 -146.582l-145.513 -145.513zM-7 0q-58 0 -58 88v19q0 77 58 77h60q330 0 816 251l74 38q-26 7 -216 84q-196 79 -267 79q-113 0 -186 -94l-28 -36l-154 76l16 28q126 207 353 208q127 0 304 -86q312 -152 483 -159l-2 -174
q-115 -10 -424 -173q-429 -226 -781 -226h-48z" />
    <glyph glyph-name="uniFEA0" unicode="&#x62c;" horiz-adv-x="1351" arabic-form="medial" 
d="M562.202 -316.796l145.513 145.513l146.583 -146.582l-145.513 -145.513zM943 473q-24 6 -216 84q-196 79 -267 79q-113 0 -186 -94l-28 -36l-154 76l16 28q126 207 353 208q127 0 304 -86q312 -152 483 -159l-2 -174q-82 -6 -207 -69q4 -146 278 -146h43q21 0 21 -72
v-24q0 -88 -21 -88h-59q-365 0 -397 268q-39 -19 -82 -42q-429 -226 -781 -226h-48q-58 0 -58 88v19q0 77 58 77h60q330 0 816 251z" />
    <glyph glyph-name="uniFEA1" unicode="&#x62d;" horiz-adv-x="1386" arabic-form="isolated" 
d="M125 -145q0 584 716 743l10 2q-26 10 -114 45q-195 79 -267 79q-113 0 -186 -94l-28 -36l-154 76l16 28q126 207 353 208h1q126 0 303 -86q312 -152 483 -159l-13 -174q-176 -11 -292 -37q-658 -153 -658 -579q0 -369 531 -369q217 0 417 96l36 -174q-199 -97 -467 -97
q-391 0 -558 181q-129 139 -129 347z" />
    <glyph glyph-name="uniFEA2" unicode="&#x62d;" horiz-adv-x="1386" arabic-form="final" 
d="M1258 661l-13 -174q-103 -8 -195 -21v-8q0 -275 281 -274h63q20 0 20 -72v-24q0 -88 -20 -88h-63q-434 0 -435 424v12q-601 -151 -601 -565q0 -369 531 -369q217 0 417 96l36 -174q-199 -97 -467 -97q-391 0 -558 181q-129 139 -129 347q0 584 716 743l10 2
q-26 10 -114 45q-195 79 -267 79q-113 0 -186 -94l-28 -36l-154 76l16 28q127 208 354 208q126 0 303 -86q312 -152 483 -159z" />
    <glyph glyph-name="uniFEA3" unicode="&#x62d;" horiz-adv-x="1337" arabic-form="initial" 
d="M-7 0q-58 0 -58 88v19q0 77 58 77h60q330 0 816 251l74 38q-26 7 -216 84q-196 79 -267 79q-113 0 -186 -94l-28 -36l-154 76l16 28q126 207 353 208q127 0 304 -86q312 -152 483 -159l-2 -174q-115 -10 -424 -173q-429 -226 -781 -226h-48z" />
    <glyph glyph-name="uniFEA4" unicode="&#x62d;" horiz-adv-x="1351" arabic-form="medial" 
d="M943 473q-24 6 -216 84q-196 79 -267 79q-113 0 -186 -94l-28 -36l-154 76l16 28q126 207 353 208q127 0 304 -86q312 -152 483 -159l-2 -174q-82 -6 -207 -69q4 -146 278 -146h43q21 0 21 -72v-24q0 -88 -21 -88h-59q-365 0 -397 268q-39 -19 -82 -42
q-429 -226 -781 -226h-48q-58 0 -58 88v19q0 77 58 77h60q330 0 816 251z" />
    <glyph glyph-name="uniFEA5" unicode="&#x62e;" horiz-adv-x="1386" arabic-form="isolated" 
d="M434.202 1238.2l145.513 145.513l146.583 -146.582l-145.513 -145.513zM125 -145q0 584 716 743l10 2q-26 10 -114 45q-195 79 -267 79q-113 0 -186 -94l-28 -36l-154 76l16 28q126 207 353 208h1q126 0 303 -86q312 -152 483 -159l-13 -174q-176 -11 -292 -37
q-658 -153 -658 -579q0 -369 531 -369q217 0 417 96l36 -174q-199 -97 -467 -97q-391 0 -558 181q-129 139 -129 347z" />
    <glyph glyph-name="uniFEA6" unicode="&#x62e;" horiz-adv-x="1386" arabic-form="final" 
d="M434.202 1238.2l145.513 145.513l146.583 -146.582l-145.513 -145.513zM1258 661l-13 -174q-103 -8 -195 -21v-8q0 -275 281 -274h63q20 0 20 -72v-24q0 -88 -20 -88h-63q-434 0 -435 424v12q-601 -151 -601 -565q0 -369 531 -369q217 0 417 96l36 -174
q-199 -97 -467 -97q-391 0 -558 181q-129 139 -129 347q0 584 716 743l10 2q-26 10 -114 45q-195 79 -267 79q-113 0 -186 -94l-28 -36l-154 76l16 28q127 208 354 208q126 0 303 -86q312 -152 483 -159z" />
    <glyph glyph-name="uniFEA7" unicode="&#x62e;" horiz-adv-x="1337" arabic-form="initial" 
d="M394.202 1185.2l145.513 145.513l146.583 -146.582l-145.513 -145.513zM-7 0q-58 0 -58 88v19q0 77 58 77h60q330 0 816 251l74 38q-26 7 -216 84q-196 79 -267 79q-113 0 -186 -94l-28 -36l-154 76l16 28q126 207 353 208q127 0 304 -86q312 -152 483 -159l-2 -174
q-115 -10 -424 -173q-429 -226 -781 -226h-48z" />
    <glyph glyph-name="uniFEA8" unicode="&#x62e;" horiz-adv-x="1351" arabic-form="medial" 
d="M394.202 1185.2l145.513 145.513l146.583 -146.582l-145.513 -145.513zM943 473q-24 6 -216 84q-196 79 -267 79q-113 0 -186 -94l-28 -36l-154 76l16 28q126 207 353 208q127 0 304 -86q312 -152 483 -159l-2 -174q-82 -6 -207 -69q4 -146 278 -146h43q21 0 21 -72v-24
q0 -88 -21 -88h-59q-365 0 -397 268q-39 -19 -82 -42q-429 -226 -781 -226h-48q-58 0 -58 88v19q0 77 58 77h60q330 0 816 251z" />
    <glyph glyph-name="uniFEA9" unicode="&#x62f;" horiz-adv-x="974" arabic-form="isolated" 
d="M101 211q126 -26 221 -26q370 0 370 181q0 189 -415 450l100 152q495 -295 495 -599q0 -366 -537 -367q-127 0 -234 24v185z" />
    <glyph glyph-name="uniFEAA" unicode="&#x62f;" horiz-adv-x="1061" arabic-form="final" 
d="M338 1q-139 0 -236 25v188q120 -29 221 -29q347 0 345 165q0 44 -91 258l-121 284l165 76l192 -486q117 -298 236 -298h20q20 0 20 -77v-19q0 -88 -20 -88h-20q-167 0 -262 161q-132 -160 -449 -160z" />
    <glyph glyph-name="uniFEAB" unicode="&#x630;" horiz-adv-x="974" arabic-form="isolated" 
d="M101 211q126 -26 221 -26q370 0 370 181q0 189 -415 450l100 152q495 -295 495 -599q0 -366 -537 -367q-127 0 -234 24v185zM211.202 1286.2l145.513 145.513l146.583 -146.582l-145.513 -145.513z" />
    <glyph glyph-name="uniFEAC" unicode="&#x630;" horiz-adv-x="1061" arabic-form="final" 
d="M338 1q-139 0 -236 25v188q120 -29 221 -29q347 0 345 165q0 44 -91 258l-121 284l165 76l192 -486q117 -298 236 -298h20q20 0 20 -77v-19q0 -88 -20 -88h-20q-167 0 -262 161q-132 -160 -449 -160zM355.202 1279.2l145.513 145.513l146.583 -146.582l-145.513 -145.513
z" />
    <glyph glyph-name="uniFEAD" unicode="&#x631;" horiz-adv-x="775" arabic-form="isolated" 
d="M601 532q83 -202 83 -375q1 -545 -635 -665l-62 158q524 98 526 502q1 136 -78 320z" />
    <glyph glyph-name="uniFEAE" unicode="&#x631;" horiz-adv-x="870" arabic-form="final" 
d="M678 53q-58 -453 -629 -561l-62 158q524 98 526 502q1 136 -78 320l166 60l62 -194q50 -154 188 -154h28q20 0 20 -72v-24q0 -88 -20 -88h-17q-145 0 -184 53z" />
    <glyph glyph-name="uniFEAF" unicode="&#x632;" horiz-adv-x="775" arabic-form="isolated" 
d="M601 532q83 -202 83 -375q1 -545 -635 -665l-62 158q524 98 526 502q1 136 -78 320zM304.773 895.882l150.369 150.369l151.475 -151.475l-150.369 -150.368z" />
    <glyph glyph-name="uniFEB0" unicode="&#x632;" horiz-adv-x="870" arabic-form="final" 
d="M304.773 895.882l150.369 150.369l151.475 -151.475l-150.369 -150.368zM679 53q-58 -453 -629 -561l-62 158q524 98 526 502q1 136 -78 320l166 60l62 -194q50 -154 188 -154h28q20 0 20 -72v-24q0 -88 -20 -88h-17q-145 0 -184 53z" />
    <glyph glyph-name="uniFEB1" unicode="&#x633;" horiz-adv-x="2470" arabic-form="isolated" 
d="M1350 56q-1 -159 -56 -273q-149 -303 -567 -303q-626 0 -625 581q0 209 91 429l159 -65q-74 -190 -74 -362q0 -406 456 -406q445 0 447 445q0 184 -91 370l173 60l60 -185q52 -162 222 -162q178 0 177 184q0 57 -3 101l-5 84l165 20l16 -231q10 -156 153 -155.5
t142 211.5q0 103 -44 255l171 46q50 -157 49 -300q0 -227 -121 -333q-76 -66 -190 -66q-185 0 -244 140q-101 -141 -268 -141q-125 0 -193 56z" />
    <glyph glyph-name="uniFEB2" unicode="&#x633;" horiz-adv-x="2559" arabic-form="final" 
d="M1545 185q177 -1 177 181q0 79 -2 107l-5 81l164 20l16 -231q11 -158 158 -158q139 0 141 202q0 65 -6 127l-5 61l165 20l16 -190q19 -221 185 -221h18q21 0 21 -77v-19q-2 -88 -21 -88h-16q-199 0 -249 143q-72 -143 -240 -143q-191 0 -250 141q-99 -141 -269 -141
q-125 0 -193 56q-1 -159 -56 -273q-149 -303 -567 -303q-626 0 -625 581q0 209 91 429l159 -65q-74 -190 -74 -362q0 -406 456 -406q445 0 447 445q0 184 -91 370l173 60l60 -185q52 -162 222 -162z" />
    <glyph glyph-name="uniFEB3" unicode="&#x633;" horiz-adv-x="1569" arabic-form="initial" 
d="M817 331q6 29 6 70q0 45 -4 93l-6 60l165 20l16 -231q11 -158 157 -158q139 0 139 214q0 103 -44 255l171 46q50 -158 49 -294v-6q-1 -227 -122 -333q-75 -66 -189 -66q-185 0 -244 140q-101 -141 -275 -141q-204 1 -264 141q-80 -141 -323 -141h-56q-58 0 -58 88v19
q0 77 58 77h58q205 0 236 147q6 29 6 70q0 43 -4 93l-6 60l165 20l16 -231q11 -159 174 -159q150 0 179 147z" />
    <glyph glyph-name="uniFEB4" unicode="&#x633;" horiz-adv-x="1658" arabic-form="medial" 
d="M994 343q11 -158 159 -158q140 0 139 199q0 79 -5 130l-5 61l165 20l16 -190q19 -221 185 -221h18q20 0 20 -77v-19q0 -88 -20 -88h-16q-200 0 -249 143q-72 -143 -247 -143t-243 141q-101 -141 -275 -141q-204 1 -264 141q-80 -141 -323 -141h-56q-58 0 -58 88v19
q0 77 58 77h58q206 0 237 147q5 24 5 70q0 43 -4 93l-6 60l165 20l16 -231q11 -159 174 -159q151 0 180 147q5 24 5 70q0 45 -4 93l-6 60l165 20z" />
    <glyph glyph-name="uniFEB5" unicode="&#x634;" horiz-adv-x="2470" arabic-form="isolated" 
d="M1620.6 1212.43l142.303 142.303l143.373 -143.372l-142.303 -142.303zM1785.38 943.875l142.303 142.304l143.373 -143.373l-142.303 -142.303zM1461.18 943.875l141.232 142.304l143.373 -143.373l-142.303 -142.303zM1350 56q-1 -159 -56 -273q-149 -303 -567 -303
q-626 0 -625 581q0 209 91 429l159 -65q-74 -190 -74 -362q0 -406 456 -406q445 0 447 445q0 184 -91 370l173 60l60 -185q52 -162 222 -162q178 0 177 184q0 57 -3 101l-5 84l165 20l16 -231q10 -156 153 -155.5t142 211.5q0 103 -44 255l171 46q50 -157 49 -300
q0 -227 -121 -333q-76 -66 -190 -66q-185 0 -244 140q-101 -141 -268 -141q-125 0 -193 56z" />
    <glyph glyph-name="uniFEB6" unicode="&#x634;" horiz-adv-x="2559" arabic-form="final" 
d="M1620.6 1212.43l142.303 142.303l143.373 -143.372l-142.303 -142.303zM1785.38 943.875l142.303 142.304l143.373 -143.373l-142.303 -142.303zM1461.18 943.875l141.232 142.304l143.373 -143.373l-142.303 -142.303zM1545 185q177 -1 177 181q0 79 -2 107l-5 81
l164 20l16 -231q11 -158 158 -158q139 0 141 202q0 65 -6 127l-5 61l165 20l16 -190q19 -221 185 -221h18q21 0 21 -77v-19q-2 -88 -21 -88h-16q-199 0 -249 143q-72 -143 -240 -143q-191 0 -250 141q-99 -141 -269 -141q-125 0 -193 56q-1 -159 -56 -273
q-149 -303 -567 -303q-626 0 -625 581q0 209 91 429l159 -65q-74 -190 -74 -362q0 -406 456 -406q445 0 447 445q0 184 -91 370l173 60l60 -185q52 -162 222 -162z" />
    <glyph glyph-name="uniFEB7" unicode="&#x634;" horiz-adv-x="1569" arabic-form="initial" 
d="M721.604 1209.43l142.303 142.303l143.373 -143.372l-142.303 -142.303zM886.375 940.875l142.303 142.304l143.373 -143.373l-142.303 -142.303zM562.182 940.875l141.232 142.304l143.373 -143.373l-142.303 -142.303zM817 331q6 29 6 70q0 45 -4 93l-6 60l165 20
l16 -231q11 -158 157 -158q139 0 139 214q0 103 -44 255l171 46q50 -158 49 -294v-6q-1 -227 -122 -333q-75 -66 -189 -66q-185 0 -244 140q-101 -141 -275 -141q-204 1 -264 141q-80 -141 -323 -141h-56q-58 0 -58 88v19q0 77 58 77h58q205 0 236 147q6 29 6 70q0 43 -4 93
l-6 60l165 20l16 -231q11 -159 174 -159q150 0 179 147z" />
    <glyph glyph-name="uniFEB8" unicode="&#x634;" horiz-adv-x="1658" arabic-form="medial" 
d="M721.604 1209.43l142.303 142.303l143.373 -143.372l-142.303 -142.303zM886.375 940.875l142.303 142.304l143.373 -143.373l-142.303 -142.303zM562.182 940.875l141.232 142.304l143.373 -143.373l-142.303 -142.303zM994 343q11 -158 159 -158q140 0 139 199
q0 79 -5 130l-5 61l165 20l16 -190q19 -221 185 -221h18q20 0 20 -77v-19q0 -88 -20 -88h-16q-200 0 -249 143q-72 -143 -247 -143t-243 141q-101 -141 -275 -141q-204 1 -264 141q-80 -141 -323 -141h-56q-58 0 -58 88v19q0 77 58 77h58q206 0 237 147q5 24 5 70
q0 43 -4 93l-6 60l165 20l16 -231q11 -159 174 -159q151 0 180 147q5 24 5 70q0 45 -4 93l-6 60l165 20z" />
    <glyph glyph-name="uniFEB9" unicode="&#x635;" horiz-adv-x="2587" arabic-form="isolated" 
d="M1323 347q41 -128 101 -134q340 579 685 578q146 0 245 -82q131 -109 131 -285q-2 -424 -722 -424h-51q-249 0 -362 56q-1 -159 -56 -273q-149 -303 -567 -303q-626 0 -625 581q0 209 91 429l159 -65q-74 -190 -74 -362q0 -406 456 -406q445 0 447 445q0 184 -91 370
l173 60zM1759 185q543 0 544 230q0 102 -78 156q-48 33 -113 34q-228 1 -497 -421z" />
    <glyph glyph-name="uniFEBA" unicode="&#x635;" horiz-adv-x="2616" arabic-form="final" 
d="M1424 213q345 584 685 578q148 -2 245 -82q131 -109 131 -285q0 -121 -70 -216q25 -24 191 -24h18q20 0 20 -77v-19q0 -88 -20 -88h-24q-238 0 -345 88q-156 -88 -492 -88h-51q-249 0 -362 56q-1 -159 -56 -273q-149 -303 -567 -303q-626 0 -625 581q0 209 91 429
l159 -65q-74 -190 -74 -362q0 -406 456 -406q445 0 447 445q0 184 -91 370l173 60l60 -185q41 -128 101 -134zM2112 605q-229 1 -497 -421l144 1q543 0 544 230q0 102 -78 156q-48 33 -113 34z" />
    <glyph glyph-name="uniFEBB" unicode="&#x635;" horiz-adv-x="1680" arabic-form="initial" 
d="M1578 424q-2 -424 -722 -424h-51q-370 0 -457 145q-106 -145 -338 -145h-17q-58 0 -58 88v19q0 77 59 77h16q222 0 247 132q11 60 3 178l-5 81l164 20l18 -232q10 -132 80 -150q345 584 685 578q148 -2 245 -82q131 -109 131 -285zM1205 605q-228 0 -497 -421l144 1
q543 0 544 230q0 102 -78 156q-48 33 -113 34z" />
    <glyph glyph-name="uniFEBC" unicode="&#x635;" horiz-adv-x="1719" arabic-form="medial" 
d="M1578 424q0 -121 -70 -216q25 -24 191 -24h18q20 0 20 -77v-19q0 -88 -20 -88h-24q-238 0 -345 88q-156 -88 -492 -88h-51q-366 0 -457 145q-106 -145 -338 -145h-17q-58 0 -58 88v19q0 77 58 77h16q223 0 248 132q11 60 3 178l-5 81l164 20l18 -232q10 -132 80 -150
q346 584 685 578q149 -2 245 -82q130 -108 131 -285zM1205 605q-227 3 -497 -421l144 1q543 0 544 230q0 102 -78 156q-48 33 -113 34z" />
    <glyph glyph-name="uniFEBD" unicode="&#x636;" horiz-adv-x="2587" arabic-form="isolated" 
d="M1926.2 1183.2l145.513 145.513l146.583 -146.582l-145.513 -145.513zM1323 347q41 -128 101 -134q340 579 685 578q146 0 245 -82q131 -109 131 -285q-2 -424 -722 -424h-51q-249 0 -362 56q-1 -159 -56 -273q-149 -303 -567 -303q-626 0 -625 581q0 209 91 429l159 -65
q-74 -190 -74 -362q0 -406 456 -406q445 0 447 445q0 184 -91 370l173 60zM1759 185q543 0 544 230q0 102 -78 156q-48 33 -113 34q-228 1 -497 -421z" />
    <glyph glyph-name="uniFEBE" unicode="&#x636;" horiz-adv-x="2616" arabic-form="final" 
d="M1926.2 1183.2l145.513 145.513l146.583 -146.582l-145.513 -145.513zM1424 213q345 584 685 578q148 -2 245 -82q131 -109 131 -285q0 -121 -70 -216q25 -24 191 -24h18q20 0 20 -77v-19q0 -88 -20 -88h-24q-238 0 -345 88q-156 -88 -492 -88h-51q-249 0 -362 56
q-1 -159 -56 -273q-149 -303 -567 -303q-626 0 -625 581q0 209 91 429l159 -65q-74 -190 -74 -362q0 -406 456 -406q445 0 447 445q0 184 -91 370l173 60l60 -185q41 -128 101 -134zM2112 605q-229 1 -497 -421l144 1q543 0 544 230q0 102 -78 156q-48 33 -113 34z" />
    <glyph glyph-name="uniFEBF" unicode="&#x636;" horiz-adv-x="1680" arabic-form="initial" 
d="M1016.2 1183.2l145.513 145.513l146.583 -146.582l-145.513 -145.513zM1578 424q-2 -424 -722 -424h-51q-370 0 -457 145q-106 -145 -338 -145h-17q-58 0 -58 88v19q0 77 59 77h16q222 0 247 132q11 60 3 178l-5 81l164 20l18 -232q10 -132 80 -150q345 584 685 578
q148 -2 245 -82q131 -109 131 -285zM1205 605q-228 0 -497 -421l144 1q543 0 544 230q0 102 -78 156q-48 33 -113 34z" />
    <glyph glyph-name="uniFEC0" unicode="&#x636;" horiz-adv-x="1719" arabic-form="medial" 
d="M1016.2 1183.2l145.513 145.513l146.583 -146.582l-145.513 -145.513zM1578 424q0 -121 -70 -216q25 -24 191 -24h18q20 0 20 -77v-19q0 -88 -20 -88h-24q-238 0 -345 88q-156 -88 -492 -88h-51q-366 0 -457 145q-106 -145 -338 -145h-17q-58 0 -58 88v19q0 77 58 77h16
q223 0 248 132q11 60 3 178l-5 81l164 20l18 -232q10 -132 80 -150q346 584 685 578q149 -2 245 -82q130 -108 131 -285zM1205 605q-227 3 -497 -421l144 1q543 0 544 230q0 102 -78 156q-48 33 -113 34z" />
    <glyph glyph-name="uniFEC1" unicode="&#x637;" horiz-adv-x="1480" arabic-form="isolated" 
d="M1380 424q-3 -424 -722 -424h-557v184h221h2l72 115v1110h173v-865q202 252 435 247q149 -2 245 -82q131 -109 131 -285zM1007 605q-231 0 -497 -420h144q542 0 544 230q0 102 -78 156q-48 33 -113 34z" />
    <glyph glyph-name="uniFEC2" unicode="&#x637;" horiz-adv-x="1515" arabic-form="final" 
d="M1003 791q147 -1 245 -82q130 -108 131 -285q0 -115 -70 -217q12 -23 196 -23h18q20 0 20 -77v-19q0 -88 -20 -88h-24q-262 0 -363 82q-154 -82 -478 -82h-557v184h221h2l71 115v1110h174v-865q200 250 434 247zM1006 605q-237 -3 -496 -420h144q542 0 543 230
q0 102 -78 156q-50 34 -113 34z" />
    <glyph glyph-name="uniFEC3" unicode="&#x637;" horiz-adv-x="1300" arabic-form="initial" 
d="M1197 424q0 -424 -721 -424h-483q-58 0 -58 88v19q0 77 58 77h146l74 114v1111h173v-865q201 247 436 247q146 -1 244 -82q131 -109 131 -285zM825 605q-232 -1 -498 -420h144q544 0 544 230q0 102 -78 156q-48 33 -112 34z" />
    <glyph glyph-name="uniFEC4" unicode="&#x637;" horiz-adv-x="1332" arabic-form="medial" 
d="M1197 424q0 -115 -71 -217q12 -23 196 -23h19q20 0 20 -77v-19q0 -88 -20 -88h-24q-263 0 -364 82q-154 -82 -477 -82h-483q-58 0 -58 88v19q0 77 58 77h148l72 115v1110h173v-865q203 248 436 247q146 -1 244 -82q131 -109 131 -285zM825 605q-232 -1 -498 -420h144
q544 0 544 230q0 102 -78 156q-48 33 -112 34z" />
    <glyph glyph-name="uniFEC5" unicode="&#x638;" horiz-adv-x="1480" arabic-form="isolated" 
d="M1380 424q-3 -424 -722 -424h-557v184h221h2l72 115v1110h173v-865q202 252 435 247q149 -2 245 -82q131 -109 131 -285zM1007 605q-231 0 -497 -420h144q542 0 544 230q0 102 -78 156q-48 33 -113 34zM834.202 1183.2l145.513 145.513l146.583 -146.582
l-145.513 -145.513z" />
    <glyph glyph-name="uniFEC6" unicode="&#x638;" horiz-adv-x="1515" arabic-form="final" 
d="M834.202 1183.2l145.513 145.513l146.583 -146.582l-145.513 -145.513zM1003 791q147 -1 245 -82q130 -108 131 -285q0 -115 -70 -217q12 -23 196 -23h18q20 0 20 -77v-19q0 -88 -20 -88h-24q-262 0 -363 82q-154 -82 -478 -82h-557v184h221h2l71 115v1110h174v-865
q200 250 434 247zM1006 605q-237 -3 -496 -420h144q542 0 543 230q0 102 -78 156q-50 34 -113 34z" />
    <glyph glyph-name="uniFEC7" unicode="&#x638;" horiz-adv-x="1300" arabic-form="initial" 
d="M654.202 1183.2l145.513 145.513l146.583 -146.582l-145.513 -145.513zM1197 424q0 -424 -721 -424h-483q-58 0 -58 88v19q0 77 58 77h146l74 114v1111h173v-865q201 247 436 247q146 -1 244 -82q131 -109 131 -285zM825 605q-232 -1 -498 -420h144q544 0 544 230
q0 102 -78 156q-48 33 -112 34z" />
    <glyph glyph-name="uniFEC8" unicode="&#x638;" horiz-adv-x="1332" arabic-form="medial" 
d="M654.202 1183.2l145.513 145.513l146.583 -146.582l-145.513 -145.513zM1197 424q0 -115 -71 -217q12 -23 196 -23h19q20 0 20 -77v-19q0 -88 -20 -88h-24q-263 0 -364 82q-154 -82 -477 -82h-483q-58 0 -58 88v19q0 77 58 77h148l72 115v1110h173v-865q203 248 436 247
q146 -1 244 -82q131 -109 131 -285zM825 605q-232 -1 -498 -420h144q544 0 544 230q0 102 -78 156q-48 33 -112 34z" />
    <glyph glyph-name="uniFEC9" unicode="&#x639;" horiz-adv-x="1346" arabic-form="isolated" 
d="M635 463q179 31 306 32q94 0 183 -10l-23 -175q-86 3 -116 2q-710 -20 -710 -457q0 -353 520 -353q208 0 408 95l36 -174q-198 -97 -456 -97q-376 0 -549 184q-129 133 -129 338q0 392 358 550q-121 140 -121 297q0 69 27 139q27 66 81 123q101 107 284 107
q153 0 332 -122l-68 -150q-149 89 -254 89q-129 0 -188 -98q-30 -49 -30 -101q0 -45 24 -93q22 -45 85 -126z" />
    <glyph glyph-name="uniFECA" unicode="&#x639;" horiz-adv-x="1187" arabic-form="final" 
d="M587 206q-312 -172 -312 -402q-1 -291 424 -292q167 0 344 73l36 -174q-167 -75 -391 -74q-260 1 -402 97q-181 121 -182 370q0 315 316 515q-288 168 -288 322q0 105 161 175q110 48 301 48q198 0 305 -46q149 -63 149 -173q0 -140 -317 -338q141 -123 436 -123h28
q20 0 20 -77v-19q0 -88 -20 -88h-28q-305 0 -580 206zM588 425q278 150 277 206q0 51 -272 51t-272 -63q0 -48 267 -194z" />
    <glyph glyph-name="uniFECB" unicode="&#x639;" horiz-adv-x="1059" arabic-form="initial" 
d="M863 584q-124 102 -246 103q-64 1 -115 -17.5t-88 -54.5q-35 -35 -53 -78t-18 -95q0 -135 156 -211q22 -11 26 -10l436 111v-184q-476 -148 -876 -148h-92q-58 0 -58 88v19q0 77 58 77h273h7l-4 5q-25 27 -45 58q-56 85 -55 205q1 164 89 275q47 59 118 97q92 50 216 49
q205 -1 338 -139z" />
    <glyph glyph-name="uniFECC" unicode="&#x639;" horiz-adv-x="1151" arabic-form="medial" 
d="M762 249q109 -65 373 -65h23q20 0 20 -77v-19q0 -29 -2 -50q-3 -20 -7 -29q-5 -9 -11 -9h-23q-333 0 -516 142l-2 1l-2 -1q-165 -142 -598 -142h-24q-58 0 -58 88v19q0 77 58 77h27q343 0 441 65l4 3l-4 3q-303 171 -303 336q0 104 158 175q109 49 303 50q188 1 306 -48
q149 -63 149 -172q0 -146 -312 -342l-5 -2zM880 570q0 62 -266 62t-267 -64q0 -23 31 -55q72 -76 234 -158l2 -1l1 1q149 79 233 166q32 32 32 49z" />
    <glyph glyph-name="uniFECD" unicode="&#x63a;" horiz-adv-x="1346" arabic-form="isolated" 
d="M635 463q179 31 306 32q94 0 183 -10l-23 -175q-86 3 -116 2q-710 -20 -710 -457q0 -353 520 -353q208 0 408 95l36 -174q-198 -97 -456 -97q-376 0 -549 184q-129 133 -129 338q0 392 358 550q-121 140 -121 297q0 69 27 139q27 66 81 123q101 107 284 107
q153 0 332 -122l-68 -150q-149 89 -254 89q-129 0 -188 -98q-30 -49 -30 -101q0 -45 24 -93q22 -45 85 -126zM559.202 1367.2l145.513 145.513l146.583 -146.582l-145.513 -145.513z" />
    <glyph glyph-name="uniFECE" unicode="&#x63a;" horiz-adv-x="1187" arabic-form="final" 
d="M587 206q-312 -172 -312 -402q-1 -291 424 -292q167 0 344 73l36 -174q-167 -75 -391 -74q-260 1 -402 97q-181 121 -182 370q0 315 316 515q-288 168 -288 322q0 105 161 175q110 48 301 48q198 0 305 -46q149 -63 149 -173q0 -140 -317 -338q141 -123 436 -123h28
q20 0 20 -77v-19q0 -88 -20 -88h-28q-305 0 -580 206zM588 425q278 150 277 206q0 51 -272 51t-272 -63q0 -48 267 -194zM432.202 1187.2l145.513 145.513l146.583 -146.582l-145.513 -145.513z" />
    <glyph glyph-name="uniFECF" unicode="&#x63a;" horiz-adv-x="1063" arabic-form="initial" 
d="M863 584q-124 102 -246 103q-64 1 -115 -17.5t-88 -54.5q-35 -35 -53 -78t-18 -95q0 -135 156 -211q22 -11 26 -10l436 111v-184q-476 -148 -876 -148h-92q-58 0 -58 88v19q0 77 58 77h273h7l-4 5q-25 27 -45 58q-56 85 -55 205q1 164 89 275q47 59 118 97q92 50 216 49
q205 -1 338 -139zM423.202 1222.2l145.513 145.513l146.583 -146.582l-145.513 -145.513z" />
    <glyph glyph-name="uniFED0" unicode="&#x63a;" horiz-adv-x="1151" arabic-form="medial" 
d="M762 249q109 -65 373 -65h23q20 0 20 -77v-19q0 -29 -2 -50q-3 -20 -7 -29q-5 -9 -11 -9h-23q-333 0 -516 142l-2 1l-2 -1q-165 -142 -598 -142h-24q-58 0 -58 88v19q0 77 58 77h27q343 0 441 65l4 3l-4 3q-303 171 -303 336q0 104 158 175q109 49 303 50q188 1 306 -48
q149 -63 149 -172q0 -146 -312 -342l-5 -2zM880 570q0 62 -266 62t-267 -64q0 -23 31 -55q72 -76 234 -158l2 -1l1 1q149 79 233 166q32 32 32 49zM466.202 1165.2l145.513 145.513l146.583 -146.582l-145.513 -145.513z" />
    <glyph glyph-name="uniFED1" unicode="&#x641;" horiz-adv-x="1821" arabic-form="isolated" 
d="M1197.2 1359.2l145.513 145.513l146.583 -146.582l-145.513 -145.513zM1718 473q-2 -283 -136 -383q-120 -90 -422 -90h-330q-731 0 -731 486q0 135 55 257l157 -69q-33 -85 -33 -163q0 -327 538 -327h365q378 0 380 197q0 9 -1 18q-92 -28 -199 -28q-323 0 -328 271
q-1 43 7 83q30 158 114 244q83 86 207 86q84 0 147 -41q169 -109 202 -418q7 -65 8 -123zM1197 669q0 -125 177 -124q84 0 171 26q-15 116 -52 196q-49 108 -138 108q-104 0 -146 -134q-12 -38 -12 -72z" />
    <glyph glyph-name="uniFED2" unicode="&#x641;" horiz-adv-x="1995" arabic-form="final" 
d="M1354.2 1232.2l145.513 145.513l146.583 -146.582l-145.513 -145.513zM1394 641q-60 -59 -60 -117q0 -61 64 -135q73 -85 112 -85q38 0 112 85q64 74 63 134q1 73 -90 146q-51 42 -91 42t-110 -70zM1506 129q-187 -129 -642 -129h-34q-731 0 -731 486q0 135 55 257
l157 -69q-33 -84 -33 -161q0 -329 563 -329q367 0 477 33q-159 133 -159 318q0 175 198 312q70 49 153 49q81 0 141 -36q211 -128 211 -337q0 -174 -161 -306q93 -33 270 -33h32q20 0 20 -77v-19q0 -88 -20 -88h-30q-295 0 -467 129z" />
    <glyph glyph-name="uniFED3" unicode="&#x641;" horiz-adv-x="904" arabic-form="initial" 
d="M446 372q-325 0 -329 271q0 43 8 83q30 158 113.5 244t207.5 86q84 0 147 -41q167 -108 202 -418q7 -65 7 -123q0 -283 -135 -384q-120 -90 -422 -90h-252q-58 0 -58 88v19q0 77 58 77h263q381 0 390 198q0 9 -1 18q-92 -28 -199 -28zM282 670q0 -125 177 -124
q84 0 170 26q-14 116 -51 196q-49 108 -139 108q-104 0 -145 -134q-12 -38 -12 -72zM273.202 1359.2l145.513 145.513l146.583 -146.582l-145.513 -145.513z" />
    <glyph glyph-name="uniFED4" unicode="&#x641;" horiz-adv-x="1022" arabic-form="medial" 
d="M421 641q-60 -59 -60 -117q0 -61 64 -135q73 -85 112 -85q38 0 112 85q64 74 64 134q0 73 -91 146q-51 42 -91 42t-110 -70zM533 129q-174 -129 -499 -129h-41q-58 0 -58 88v19q0 77 58 77h41q232 1 311 33q-159 133 -159 318q0 175 198 312q70 49 153 49q81 0 141 -36
q211 -128 211 -337q0 -174 -161 -306q93 -33 270 -33h32q20 0 20 -77v-19q0 -88 -20 -88h-30q-295 0 -467 129zM386.202 1230.2l145.513 145.513l146.583 -146.582l-145.513 -145.513z" />
    <glyph glyph-name="uniFED5" unicode="&#x642;" horiz-adv-x="1511" arabic-form="isolated" 
d="M747 -460q-646 0 -645 581q0 209 91 429l159 -65q-74 -190 -74 -362q0 -407 476 -406q456 1 488 386l1 5q-92 -28 -199 -29q-325 -2 -329 272q0 43 8 83q33 161 113 244q83 85 208 85q84 1 147 -40q171 -113 208 -428q17 -148 -2 -275q-74 -480 -650 -480zM879 378
q1 -126 178 -125q84 1 170 26q-14 117 -51 196q-49 109 -139 109q-104 0 -145 -135q-12 -37 -13 -71zM1042.17 1072.2l145.513 145.513l146.583 -146.582l-145.513 -145.513zM716.901 1072.2l145.513 145.513l146.583 -146.582l-145.513 -145.513z" />
    <glyph glyph-name="uniFED6" unicode="&#x642;" horiz-adv-x="1526" arabic-form="final" 
d="M747 -520q-646 0 -645 581q0 209 91 429l159 -65q-74 -190 -74 -362q0 -406 476 -406q462 0 494 344h-149q-366 0 -366 298q0 121 51 229q94 197 285 197q303 0 349 -541h116q20 0 20 -77v-19q0 -88 -20 -88l-118 1q-57 -520 -669 -521zM1250 185q-22 350 -193 351
q-95 1 -137 -120q-18 -53 -18 -102q0 -129 187 -129h161zM1051.17 1025.2l145.513 145.513l146.583 -146.582l-145.513 -145.513zM725.901 1025.2l145.513 145.513l146.583 -146.582l-145.513 -145.513z" />
    <glyph glyph-name="uniFED7" unicode="&#x642;" horiz-adv-x="907" arabic-form="initial" 
d="M446 372q-325 0 -329 271q0 43 8 83q30 158 113.5 244t207.5 86q84 0 147 -41q167 -108 202 -418q7 -65 7 -123q0 -283 -135 -384q-120 -90 -422 -90h-252q-58 0 -58 88v19q0 77 58 77h263q381 0 390 198q0 9 -1 18q-92 -28 -199 -28zM282 670q0 -125 177 -124
q84 0 170 26q-14 116 -51 196q-49 108 -139 108q-104 0 -145 -134q-12 -38 -12 -72zM438.165 1356.2l145.513 145.513l146.583 -146.582l-145.513 -145.513zM112.901 1356.2l145.513 145.513l146.583 -146.582l-145.513 -145.513z" />
    <glyph glyph-name="uniFED8" unicode="&#x642;" horiz-adv-x="1022" arabic-form="medial" 
d="M421 641q-60 -59 -60 -117q0 -61 64 -135q73 -85 112 -85q38 0 112 85q64 74 64 134q0 73 -91 146q-51 42 -91 42t-110 -70zM533 129q-174 -129 -499 -129h-41q-58 0 -58 88v19q0 77 58 77h41q232 1 311 33q-159 133 -159 318q0 175 198 312q70 49 153 49q81 0 141 -36
q211 -128 211 -337q0 -174 -161 -306q93 -33 270 -33h32q20 0 20 -77v-19q0 -88 -20 -88h-30q-295 0 -467 129zM540.165 1221.2l145.513 145.513l146.583 -146.582l-145.513 -145.513zM214.901 1221.2l145.513 145.513l146.583 -146.582l-145.513 -145.513z" />
    <glyph glyph-name="uniFED9" unicode="&#x643;" horiz-adv-x="1997" arabic-form="isolated" 
d="M842 184q710 0 710 288v933h178v-931q0 -474 -868 -474h-1q-761 0 -761 486q0 135 55 257l157 -69q-33 -83 -33 -159q2 -331 563 -331zM686 662q94 -10 163 -11q106 0 159.5 22t54.5 69q0 43 -31 69q-30 26 -91 34q-214 33 -210 213q5 207 393 236v-129
q-260 -24 -260 -115q0 -74 139 -95q193 -30 192 -209q0 -121 -119 -186q-75 -41 -210 -41q-80 0 -180 15v128z" />
    <glyph glyph-name="uniFEDA" unicode="&#x643;" horiz-adv-x="2001" arabic-form="final" 
d="M686 662q94 -10 163 -11q106 0 159.5 22t54.5 69q0 43 -31 69q-30 26 -91 34q-214 33 -210 213q5 207 393 236v-129q-260 -24 -260 -115q0 -74 139 -95q193 -30 192 -209q0 -121 -119 -186q-75 -41 -210 -41q-80 0 -180 15v128zM1634 212q-192 -212 -772 -212h-1
q-761 0 -761 486q0 135 55 257l157 -69q-33 -83 -33 -159q2 -331 563 -331q710 0 710 288v933h178v-931q0 -290 256 -290h23q20 0 20 -72v-24q0 -88 -20 -88h-31q-276 0 -344 212z" />
    <glyph glyph-name="uniFEDB" unicode="&#x643;" horiz-adv-x="950" arabic-form="initial" 
d="M219 1009q261 -219 382 -349q130 -141 127 -310q-6 -350 -592 -350h-143q-58 0 -58 88v19q0 77 58 77h142q413 0 414 191q0 98 -104 195q-153 143 -273 237q-114 89 -114 187q0 130 140 183l693 263v-181l-672 -250v0z" />
    <glyph glyph-name="uniFEDC" unicode="&#x643;" horiz-adv-x="1027" arabic-form="medial" 
d="M219 1009q261 -219 382 -349q81 -88 129 -225q88 -251 288 -251h16q20 0 20 -77v-19q0 -88 -20 -88h-16q-217 0 -349 177q-114 -177 -533 -177h-143q-58 0 -58 88v19q0 77 58 77h142q413 0 414 191q0 98 -104 195q-153 143 -273 237q-114 89 -114 187q0 130 140 183
l693 263v-181z" />
    <glyph glyph-name="uniFEDD" unicode="&#x644;" horiz-adv-x="1441" arabic-form="isolated" 
d="M1113 100l3 1308h172l-1 -1109q0 -140 -9 -271q-42 -548 -577 -548q-600 0 -598 561q0 202 83 405l159 -65q-67 -170 -67 -343q0 -381 424 -381q409 0 411 443z" />
    <glyph glyph-name="uniFEDE" unicode="&#x644;" horiz-adv-x="1526" arabic-form="final" 
d="M1114 100l2 1307h172l-1 -1012q0 -211 228 -211h20q20 0 20 -72v-24q0 -88 -20 -88h-25q-155 0 -230 75q-25 -595 -579 -595q-600 0 -598 557q0 206 83 409l159 -65q-67 -170 -67 -343q0 -381 424 -381q411 0 412 443z" />
    <glyph glyph-name="uniFEDF" unicode="&#x644;" horiz-adv-x="635" arabic-form="initial" 
d="M-7 0q-58 0 -58 88v19q0 77 58 77h48q267 0 267 251v973h174v-979q0 -429 -446 -429h-43z" />
    <glyph glyph-name="uniFEE0" unicode="&#x644;" horiz-adv-x="718" arabic-form="medial" 
d="M43 0h-50q-58 0 -58 88v19q0 77 58 77h52q266 0 267 207l5 1017h173v-1017q0 -207 216 -207h17q24 0 24 -77v-19q0 -88 -24 -88h-15q-215 0 -316 142q-97 -142 -349 -142z" />
    <glyph glyph-name="uniFEE1" unicode="&#x645;" horiz-adv-x="1242" arabic-form="isolated" 
d="M842 158q130 -1 130 139q-1 58 -22 110q-43 107 -158 109q-136 2 -211 -207q173 -151 261 -151zM1143 309q0 -142 -69 -235q-70 -97 -222 -97q-102 0 -245 88q-48 29 -103 57q-33 17 -76 16q-153 -2 -152 -476q0 -196 14 -357h-180q-12 190 -11 361q3 343 79 493
q78 153 215 174q147 371 396 372q162 1 258 -116t96 -280z" />
    <glyph glyph-name="uniFEE2" unicode="&#x645;" horiz-adv-x="1306" arabic-form="final" 
d="M847 159q128 -1 125 139q-1 58 -24 110q-47 107 -156 108q-136 2 -211 -207q172 -150 266 -150zM1314 184q20 0 20 -77v-19q0 -88 -20 -88h-16q-122 0 -194 112q-77 -135 -246 -135q-75 0 -184 51q-39 18 -136 77q-58 35 -110 33q-153 -4 -152 -476q0 -196 14 -357h-180
q-11 170 -11 361q0 337 79 493q78 153 215 174q146 371 398 372q160 0 256 -119q61 -76 90 -214q40 -188 161 -188h16z" />
    <glyph glyph-name="uniFEE3" unicode="&#x645;" horiz-adv-x="1040" arabic-form="initial" 
d="M631 157q140 0 140 137q0 65 -20 112q-48 109 -160 109q-138 0 -211 -207q131 -151 251 -151zM293 143q-123 -143 -280 -143h-21q-57 0 -57 88v19q0 77 57 77h16q81 0 160 94q34 42 76 136q131 290 343 291q165 0 260 -119q95 -118 95 -277q0 -155 -67 -234
q-83 -97 -230 -97q-194 0 -352 165z" />
    <glyph glyph-name="uniFEE4" unicode="&#x645;" horiz-adv-x="1102" arabic-form="medial" 
d="M632 157q145 -1 142 139q-1 58 -23 110q-48 108 -162 109q-135 2 -209 -207q129 -150 252 -151zM643 -22q-184 0 -350 165q-123 -143 -280 -143h-21q-57 0 -57 88v19q0 77 57 77h16q92 0 161 94q36 50 75 137q130 289 343 290q162 0 256 -119q67 -86 94 -214
q40 -188 158 -188h15q20 0 20 -77v-19q0 -88 -20 -88h-16q-116 0 -188 112q-86 -134 -263 -134z" />
    <glyph glyph-name="uniFEE5" unicode="&#x646;" horiz-adv-x="1455" arabic-form="isolated" 
d="M1294 -147q-149 -303 -567 -303q-626 0 -625 581q0 209 91 429l159 -65q-74 -190 -74 -362q0 -406 456 -406q445 0 447 445q0 184 -91 370l173 60q88 -240 88 -470q0 -162 -57 -279zM570.202 687.204l145.513 145.513l146.583 -146.582l-145.513 -145.513z" />
    <glyph glyph-name="uniFEE6" unicode="&#x646;" horiz-adv-x="1539" arabic-form="final" 
d="M569.202 615.204l145.513 145.513l146.583 -146.582l-145.513 -145.513zM1350 56q-1 -159 -56 -273q-149 -303 -567 -303q-626 0 -625 581q0 209 91 429l159 -65q-74 -190 -74 -362q0 -406 456 -406q445 0 447 445q0 184 -91 370l173 60l73 -228q39 -120 193 -120h19
q20 0 20 -72v-24q0 -88 -20 -88h-15q-124 0 -183 56z" />
    <glyph glyph-name="uniFEE7" unicode="&#x646;" horiz-adv-x="596" arabic-form="initial" 
d="M69 0h-76q-58 0 -58 88v19q0 77 58 77h76q110 0 167 32q85 50 85 209q0 119 -37 265l163 41q49 -156 49 -303q0 -245 -140 -351q-102 -77 -287 -77zM129.202 1046.2l145.513 145.513l146.583 -146.582l-145.513 -145.513z" />
    <glyph glyph-name="uniFEE8" unicode="&#x646;" horiz-adv-x="667" arabic-form="medial" 
d="M695 88q0 -88 -20 -88h-10q-198 0 -273 141q-99 -141 -296 -141h-104q-57 0 -57 88v19q0 77 57 77h99q181 0 206 132q6 35 6 83q0 50 -3 95l-5 81l164 20l16 -231q13 -180 192 -180h8q20 0 20 -86v-10zM174.202 960.204l145.513 145.513l146.583 -146.582
l-145.513 -145.513z" />
    <glyph glyph-name="uniFEE9" unicode="&#x647;" horiz-adv-x="942" arabic-form="isolated" 
d="M462 644q-190 -166 -190 -293q0 -167 203 -167q206 0 205 168q0 118 -218 292zM384 947q467 -342 467 -601q0 -189 -165 -291q-79 -50 -210 -51q-121 0 -207 43q-168 84 -168 299q0 207 228 429l-45 39z" />
    <glyph glyph-name="uniFEEA" unicode="&#x647;" horiz-adv-x="1053" arabic-form="final" 
d="M101 406q0 294 519 453l-9 46l163 33l82 -591q23 -163 186 -163h20q20 0 20 -72v-24q0 -88 -20 -88h-24q-274 0 -323 227q-120 -105 -269 -105q-223 0 -311 146q-34 57 -34 138zM641 692q-362 -130 -362 -274q0 -122 161 -122q77 0 154 47q96 59 76 190l-21 133l-5 28z
" />
    <glyph glyph-name="uniFEEB" unicode="&#x647;" horiz-adv-x="1395" arabic-form="initial" 
d="M95 0h-102q-58 0 -58 88v19q0 77 58 77h265h50q-42 29 -68 59q-77 89 -76 198q0 122 85 220q104 121 266 121q149 0 248 -94q85 -79 86 -203q0 -181 -158 -278q161 -23 208 -23q68 0 105 14q109 43 110 158q2 241 -571 517l87 153q669 -325 663 -671q-2 -148 -90 -245
q-98 -109 -304 -109q-156 -1 -383 71q-243 -72 -421 -72zM621 332q68 66 71 145q0 52 -29 84q-54 59 -139 59q-102 0 -154 -87q-24 -40 -25 -96q0 -63 61 -118q28 -25 61 -40q24 -12 50 -18q15 6 30 15q42 26 74 56z" />
    <glyph glyph-name="uniFEEC" unicode="&#x647;" horiz-adv-x="992" arabic-form="medial" 
d="M573 -315q1 499 405 499h22q20 0 20 -77v-19q0 -88 -20 -88h-24q-285 0 -247 -421l-123 -119q-340 161 -401 540h-212q-58 0 -58 88v19q0 77 58 77h199q19 399 153 543q82 88 203.5 88t193 -86.5t70.5 -240.5q-3 -171 -132 -322q-135 -159 -312 -167q34 -204 205 -314z
M359 183q117 3 209 101q81 87 81 210q0 130 -99 133q-170 6 -191 -444z" />
    <glyph glyph-name="uniFEED" unicode="&#x648;" horiz-adv-x="860" arabic-form="isolated" 
d="M102 -350q433 80 508 363q-119 -15 -152 -15q-365 -2 -365 300q0 121 52 229q94 197 284 197q206 0 294 -229q58 -149 58 -327q0 -560 -617 -676zM611 202q-22 333 -194 333q-96 0 -137 -120q-18 -54 -18 -102q0 -138 197 -137q73 1 152 26z" />
    <glyph glyph-name="uniFEEE" unicode="&#x648;" horiz-adv-x="873" arabic-form="final" 
d="M605 0h-146q-366 0 -366 298q0 121 52 229q94 197 284 197q313 0 349 -541h103q20 0 20 -85v-10q0 -88 -20 -88l-115 1q-75 -409 -602 -509l-62 158q431 80 503 350zM611 184q-23 350 -194 351q-94 1 -137 -120q-18 -53 -18 -102q0 -129 187 -129h162z" />
    <glyph glyph-name="uniFEEF" unicode="&#x649;" horiz-adv-x="1504" arabic-form="isolated" 
d="M278 84q0 -406 463 -408q178 0 318 65q73 34 128 90q55 57 55 129q0 57 -78 57l-114 1q-249 1 -249 199q0 189 120 320q155 169 436 169h21v-193h-22q-160 0 -265 -73q-107 -75 -109 -184q0 -30 16 -43q17 -14 54 -14h119q237 1 237 -199q0 -290 -288 -422
q-169 -77 -384 -77q-633 0 -633 580q0 214 109 472l159 -65q-93 -223 -93 -404z" />
    <glyph glyph-name="uniFEF0" unicode="&#x649;" horiz-adv-x="1503" arabic-form="final" 
d="M1509 184q21 0 21 -77v-19q0 -88 -21 -88h-142h-15q47 -36 47 -113q0 -153 -181 -270q-210 -136 -492 -136q-625 0 -624 582q0 194 72 370l159 -65q-55 -150 -55 -306q0 -403 447 -405q171 0 316 65q115 52 164 126q23 35 23 67q0 86 -132 86h-153q-58 6 -79 94
q-10 42 -10 62q0 23 11 27h644z" />
    <glyph glyph-name="uniFEF1" unicode="&#x64a;" horiz-adv-x="1504" arabic-form="isolated" 
d="M278 84q0 -406 463 -408q178 0 318 65q73 34 128 90q55 57 55 129q0 57 -78 57l-114 1q-249 1 -249 199q0 189 120 320q155 169 436 169h21v-193h-22q-160 0 -265 -73q-107 -75 -109 -184q0 -30 16 -43q17 -14 54 -14h119q237 1 237 -199q0 -290 -288 -422
q-169 -77 -384 -77q-633 0 -633 580q0 214 109 472l159 -65q-93 -223 -93 -404zM753.165 -794.796l145.513 145.513l146.583 -146.582l-145.513 -145.513zM427.901 -794.796l145.513 145.513l146.583 -146.582l-145.513 -145.513z" />
    <glyph glyph-name="uniFEF2" unicode="&#x64a;" horiz-adv-x="1503" arabic-form="final" 
d="M742.165 -808.796l145.513 145.513l146.583 -146.582l-145.513 -145.513zM416.901 -808.796l145.513 145.513l146.583 -146.582l-145.513 -145.513zM1509 184q21 0 21 -77v-19q0 -88 -21 -88h-142h-15q47 -36 47 -113q0 -153 -181 -270q-210 -136 -492 -136
q-625 0 -624 582q0 194 72 370l159 -65q-55 -150 -55 -306q0 -403 447 -405q171 0 316 65q115 52 164 126q23 35 23 67q0 86 -132 86h-153q-58 6 -79 94q-10 42 -10 62q0 23 11 27h644z" />
    <glyph glyph-name="uniFEF3" unicode="&#x64a;" horiz-adv-x="682" arabic-form="initial" 
d="M69 0h-76q-58 0 -58 88v19q0 77 58 77h76q160 0 217 32q85 50 85 209q0 119 -37 265l163 41q49 -156 49 -303q0 -245 -140 -351q-102 -77 -337 -77zM303.165 -316.796l145.513 145.513l146.583 -146.582l-145.513 -145.513zM-22.0986 -316.796l145.513 145.513
l146.583 -146.582l-145.513 -145.513z" />
    <glyph glyph-name="uniFEF4" unicode="&#x64a;" horiz-adv-x="717" arabic-form="medial" 
d="M303.165 -316.796l145.513 145.513l146.583 -146.582l-145.513 -145.513zM-22.0986 -316.796l145.513 145.513l146.583 -146.582l-145.513 -145.513zM745 88q0 -88 -20 -88h-10q-198 0 -273 141q-99 -141 -346 -141h-104q-57 0 -57 88v19q0 77 57 77h99q231 0 256 132
q6 35 6 83q0 50 -3 95l-5 81l164 20l16 -231q13 -180 192 -180h8q20 0 20 -86v-10z" />
    <glyph glyph-name=".notdef" horiz-adv-x="507" 
 />
    <glyph glyph-name=".null" 
 />
    <glyph glyph-name="nonmarkingreturn" unicode="&#xd;" horiz-adv-x="507" 
 />
    <glyph glyph-name="uni0002" 
 />
    <glyph glyph-name="uni0009" unicode="&#x9;" 
 />
    <glyph glyph-name="space" unicode=" " horiz-adv-x="560" 
 />
    <glyph glyph-name="exclam" unicode="!" horiz-adv-x="641" 
d="M185 140q0 56 39.5 96t95.5 40t95.5 -40t39.5 -95.5t-39.5 -95.5t-95.5 -40q-49 0 -85 31q-27 22 -40 53q-10 23 -10 51zM213 1407h218l-25 -958h-167z" />
    <glyph glyph-name="quotedbl" unicode="&#x22;" horiz-adv-x="655" 
d="M277 1400l-30 -358h-111l1 348v146h140v-136zM547 1400l-30 -358h-111l1 356v138h140v-136z" />
    <glyph glyph-name="numbersign" unicode="#" horiz-adv-x="1275" 
d="M716 410h-264l-80 -410h-143l80 410h-239v137h265l69 354h-258v139h285l82 416h143l-82 -416h264l82 416h144l-82 -416h204v-139h-231l-69 -354h225v-137h-251l-80 -410h-144zM478 547h264l69 354h-264z" />
    <glyph glyph-name="dollar" unicode="$" horiz-adv-x="1150" 
d="M856 375q0 45 -15 83t-48.5 71t-87 61t-131.5 54q-95 29 -170.5 67.5t-128.5 90.5t-81 120t-28 157q0 83 25 151.5t71.5 119t112.5 82t149 41.5v219h149v-220q168 -23 261.5 -141t93.5 -323h-184q0 67 -16 123t-47.5 97t-78 64t-106.5 23q-63 0 -109 -17t-76 -47.5
t-45 -73.5t-15 -95q0 -48 14 -86.5t47 -70.5t88 -60.5t138 -55.5q96 -31 171 -69.5t126.5 -89.5t78.5 -118t27 -155q0 -87 -27 -156t-77.5 -119t-122 -80t-159.5 -39v-191h-148v191q-77 7 -148.5 35t-127 81t-88.5 134.5t-33 195.5h185q0 -85 25 -141t65.5 -89t90 -46
t99.5 -13q67 0 119 16.5t88 47t55 74t19 97.5z" />
    <glyph glyph-name="percent" unicode="%" horiz-adv-x="1500" 
d="M105 1176q0 62 20.5 116.5t59 95.5t94 65t124.5 24q70 0 125.5 -24t93.5 -65t58.5 -95.5t20.5 -116.5v-77q0 -61 -20 -115.5t-58.5 -95t-93.5 -64.5t-124 -24q-70 0 -125.5 24t-94.5 64.5t-59.5 95t-20.5 115.5v77zM243 1099q0 -35 10 -67t30 -57t50.5 -40t71.5 -15
q40 0 70 15t49.5 39.5t29 57t9.5 67.5v77q0 35 -10 67.5t-29.5 57.5t-50 40t-70.5 15q-41 0 -71 -15t-49.5 -40t-29.5 -57.5t-10 -67.5v-77zM814 357q0 61 20.5 116t59 95.5t94 64.5t124.5 24q70 0 125.5 -24t94 -64.5t59 -95.5t20.5 -116v-78q0 -62 -20.5 -116.5t-59 -95
t-93.5 -64.5t-124 -24q-70 0 -125.5 24t-94.5 64.5t-59.5 95t-20.5 116.5v78zM952 279q0 -35 10 -67.5t30 -57.5t50.5 -40t71.5 -15q40 0 70 15t49.5 40t29 57.5t9.5 67.5v78q0 35 -10 67.5t-29.5 57t-50 39.5t-70.5 15t-70 -15t-50 -39.5t-30 -57t-10 -67.5v-78zM447 110
l-105 66l711 1138l105 -66z" />
    <glyph glyph-name="ampersand" unicode="&#x26;" horiz-adv-x="1273" 
d="M101 391q0 66 20.5 119.5t58 101t89.5 90.5t114 87q-37 45 -67 86t-51.5 81.5t-33 81.5t-11.5 84q0 85 26 151t74 111t115 68.5t149 23.5q80 0 144 -25t109 -67t69 -98t24 -118q0 -53 -14.5 -96.5t-40.5 -82t-62.5 -72t-79.5 -66.5l-110 -81l324 -387q32 61 50 133.5
t18 155.5h167q0 -125 -30 -231t-93 -192l208 -249h-222l-97 115q-38 -34 -83 -59.5t-93.5 -42t-99.5 -25t-100 -8.5q-109 0 -196.5 30.5t-148.5 85t-93.5 130t-32.5 165.5zM572 131q72 0 141 29t128 83l-355 425l-42 -31q-54 -40 -85.5 -77.5t-47.5 -69.5t-20.5 -57.5
t-4.5 -41.5q0 -53 17.5 -100.5t53 -83t89.5 -56t126 -20.5zM405 1128q0 -55 32 -114.5t86 -125.5l105 74q31 21 55.5 42t41.5 45t25.5 52.5t8.5 66.5q0 30 -11.5 58t-34 49.5t-55.5 35t-75 13.5q-44 0 -77 -15.5t-55.5 -42.5t-34 -62.5t-11.5 -75.5z" />
    <glyph glyph-name="quotesingle" unicode="'" horiz-adv-x="357" 
d="M253 1425l-21 -368h-129l1 352v127h149v-111z" />
    <glyph glyph-name="parenleft" unicode="(" horiz-adv-x="700" 
d="M133 591q0 145 23 272.5t61.5 235.5t89 197t105 157t109 116t102.5 74l38 -122q-59 -45 -119.5 -124t-110.5 -194.5t-81.5 -267.5t-31.5 -342v-14q0 -190 31.5 -342t81.5 -268t110.5 -197t119.5 -129l-38 -113q-47 26 -102 74t-109.5 116.5t-105 156.5t-89 196t-61.5 235
t-23 273v10z" />
    <glyph glyph-name="parenright" unicode=")" horiz-adv-x="712" 
d="M567 581q0 -146 -23 -273t-61.5 -235t-89 -196t-105 -156.5t-109.5 -116.5t-102 -74l-39 113q59 45 120 125.5t110.5 197.5t81 270t31.5 343v14q0 190 -33.5 344t-84.5 271t-111 197.5t-114 124.5l39 113q47 -26 102 -74t109.5 -116t105 -157t89 -197t61.5 -235.5
t23 -272.5v-10z" />
    <glyph glyph-name="asterisk" unicode="*" horiz-adv-x="882" 
d="M330 983l-302 90l46 151l302 -112l-9 344h153l-10 -349l297 110l46 -152l-307 -91l198 -271l-124 -94l-186 288l-180 -281l-125 91z" />
    <glyph glyph-name="plus" unicode="+" horiz-adv-x="1161" 
d="M670 781h406v-175h-406v-460h-186v460h-406v175h406v425h186v-425z" />
    <glyph glyph-name="comma" unicode="," horiz-adv-x="402" 
d="M308 71q0 -45 -11.5 -94t-34 -97t-54.5 -92t-74 -78l-105 72q47 66 72.5 135.5t25.5 150.5v151h181v-148z" />
    <glyph glyph-name="hyphen" unicode="-" horiz-adv-x="565" 
d="M525 543h-488v151h488v-151z" />
    <glyph glyph-name="period" unicode="." horiz-adv-x="641" 
d="M185 140q0 56 39.5 96t95.5 40t95.5 -40t39.5 -95.5t-39.5 -95.5t-95.5 -40q-49 0 -85 31q-27 22 -40 53q-10 23 -10 51z" />
    <glyph glyph-name="slash" unicode="/" horiz-adv-x="844" 
d="M177 -125h-159l608 1581h158z" />
    <glyph glyph-name="zero" unicode="0" horiz-adv-x="1150" 
d="M1034 621q0 -179 -32 -301.5t-91.5 -198t-144 -108.5t-190.5 -33q-105 0 -190 33t-145 108.5t-93 198t-33 301.5v222q0 179 32.5 300t92.5 195t144.5 106t189.5 32q106 0 191 -32t145 -106t92 -195t32 -300v-222zM849 874q0 123 -17.5 209t-52.5 139.5t-86.5 77.5
t-118.5 24q-66 0 -117.5 -24t-86 -77.5t-52.5 -139.5t-18 -209v-282q0 -122 18 -209.5t53.5 -143.5t87 -82t117.5 -26q68 0 119 26t85.5 82t51.5 143.5t17 209.5v282z" />
    <glyph glyph-name="one" unicode="1" horiz-adv-x="1150" 
d="M729 0h-186v1233l-373 -137v168l530 199h29v-1463z" />
    <glyph glyph-name="two" unicode="2" horiz-adv-x="1150" 
d="M1075 0h-954v133l477 530q66 73 109.5 129t69 102.5t35.5 87t10 82.5q0 54 -17 101.5t-49 82.5t-79 55.5t-108 20.5q-74 0 -128.5 -22t-90.5 -61t-54 -93.5t-18 -120.5h-185q0 92 30.5 174t90.5 143t149 96.5t206 35.5q103 0 184.5 -28t138 -79.5t86.5 -123.5t30 -159
q0 -64 -22 -129t-59 -129.5t-87 -128t-105 -124.5l-391 -424h731v-151z" />
    <glyph glyph-name="three" unicode="3" horiz-adv-x="1150" 
d="M390 818h132q72 0 126 19t90 52.5t54 79t18 99.5q0 125 -63 190.5t-192 65.5q-59 0 -107.5 -17.5t-83 -50t-53.5 -79t-19 -103.5h-185q0 84 32 157t91 127.5t141.5 86t183.5 31.5q99 0 180 -26.5t138.5 -78t89.5 -128.5t32 -179q0 -41 -13.5 -86t-41 -88t-71 -80.5
t-103.5 -62.5q72 -23 120.5 -60.5t77.5 -83.5t41 -97t12 -100q0 -102 -35 -181.5t-97 -133.5t-146 -82.5t-183 -28.5q-95 0 -179 26.5t-147 78t-99.5 127t-36.5 172.5h186q0 -57 19 -103.5t55 -80t87 -51.5t115 -18t115 16.5t87 50.5t55 85t19 119t-22 118t-62.5 82.5
t-97.5 48.5t-128 16h-132v151z" />
    <glyph glyph-name="four" unicode="4" horiz-adv-x="1150" 
d="M902 489h202v-151h-202v-338h-186v338h-663v109l652 1009h197v-967zM263 489h453v714l-22 -40z" />
    <glyph glyph-name="five" unicode="5" horiz-adv-x="1150" 
d="M206 730l74 726h746v-171h-589l-44 -397q39 23 100.5 43t142.5 20q100 0 180.5 -34.5t136.5 -98t86 -153.5t30 -201q0 -105 -28.5 -193.5t-85.5 -153t-143.5 -101t-203.5 -36.5q-88 0 -166.5 24.5t-139.5 74.5t-100 126t-48 178h175q17 -125 89 -188.5t190 -63.5
q66 0 117 23t86.5 66t54 104.5t18.5 137.5q0 68 -19 127t-56 102.5t-91.5 68.5t-124.5 25q-47 0 -81 -6.5t-61 -18.5t-49.5 -29.5t-47.5 -38.5z" />
    <glyph glyph-name="six" unicode="6" horiz-adv-x="1149" 
d="M846 1457v-157h-17q-133 0 -226 -40t-153 -106.5t-91 -152.5t-39 -178q60 69 140.5 100.5t173.5 31.5q109 0 187.5 -41.5t129.5 -109t75.5 -153.5t24.5 -176q0 -104 -29 -194.5t-86 -157t-141 -105t-195 -38.5q-118 0 -206 49t-146.5 128.5t-87.5 179.5t-29 201v87
q0 102 12.5 203.5t43.5 194t82.5 172t129 138t184 91.5t246.5 33h17zM603 801q-49 0 -94 -15.5t-82.5 -42.5t-66 -63.5t-43.5 -78.5v-68q0 -98 23.5 -172.5t63 -125t90.5 -76.5t106 -26q64 0 114 24.5t84.5 69t52.5 105.5t18 134q0 65 -16.5 125.5t-49.5 107t-83 74.5
t-117 28z" />
    <glyph glyph-name="seven" unicode="7" horiz-adv-x="1150" 
d="M1061 1352l-603 -1352h-194l601 1304h-788v152h984v-104z" />
    <glyph glyph-name="eight" unicode="8" horiz-adv-x="1150" 
d="M1004 1076q0 -109 -57.5 -194t-155.5 -133q56 -24 101.5 -60t78 -81.5t50 -99.5t17.5 -115q0 -100 -35.5 -177t-98 -129.5t-147 -79.5t-182.5 -27t-183 27t-147 79.5t-97.5 129.5t-35.5 177q0 61 17 115t48.5 100t76.5 82t101 60q-97 48 -153 133t-56 193q0 95 32 169.5
t89 125.5t136 78t172 27t171.5 -27t136 -78t89.5 -125.5t32 -169.5zM853 397q0 61 -20.5 112t-57.5 87.5t-88.5 56.5t-113.5 20q-63 0 -114 -20t-87 -56.5t-55.5 -87.5t-19.5 -112q0 -63 19 -112t55 -83.5t87.5 -52.5t116.5 -18q64 0 115.5 18t87.5 52.5t55.5 83.5t19.5 112
zM819 1073q0 54 -17.5 100t-50 79.5t-77.5 52.5t-99 19t-99 -17.5t-77.5 -50t-50 -79t-17.5 -104.5q0 -56 17.5 -102t49.5 -78.5t77 -50t100 -17.5t100 17.5t77 50t49.5 78.5t17.5 102z" />
    <glyph glyph-name="nine" unicode="9" horiz-adv-x="1150" 
d="M323 155q150 0 247 40.5t153.5 108t79.5 155t27 181.5q-58 -69 -138.5 -111t-176.5 -42q-108 0 -186.5 42.5t-129 111t-75 155.5t-24.5 176q0 104 29 196t85.5 160.5t141 108t195.5 39.5q125 0 213 -50.5t144 -133.5t82 -188.5t26 -216.5v-67q0 -95 -9.5 -192.5t-36 -189
t-74 -171.5t-124.5 -139.5t-187.5 -94t-261.5 -34.5h-18v156h18zM545 640q47 0 91 15t81 42t66.5 63t47.5 78v74q0 99 -23 175.5t-61.5 128.5t-89 79t-105.5 27q-65 0 -115 -26t-84.5 -71.5t-52.5 -107.5t-18 -135q0 -65 16 -126.5t48.5 -109.5t82 -77t116.5 -29z" />
    <glyph glyph-name="colon" unicode=":" horiz-adv-x="641" 
d="M185 1010q0 56 39.5 96t95.5 40t95.5 -40t39.5 -95.5t-39.5 -95.5t-95.5 -40q-49 0 -85 31q-27 22 -40 53q-10 23 -10 51zM185 140q0 56 39.5 96t95.5 40t95.5 -40t39.5 -95.5t-39.5 -95.5t-95.5 -40q-49 0 -85 31q-27 22 -40 53q-10 23 -10 51z" />
    <glyph glyph-name="semicolon" unicode=";" horiz-adv-x="433" 
d="M152 1023q0 56 39.5 96t95.5 40t95.5 -40t39.5 -95.5t-39.5 -95.5t-95.5 -40q-49 0 -85 31q-27 22 -40 53q-10 23 -10 51zM320 71q0 -45 -11.5 -94t-34 -97t-54.5 -92t-74 -78l-105 72q47 66 72.5 135.5t25.5 150.5v151h181v-148z" />
    <glyph glyph-name="less" unicode="&#x3c;" horiz-adv-x="1041" 
d="M264 644l626 -253v-196l-818 379v146l818 378v-196z" />
    <glyph glyph-name="equal" unicode="=" horiz-adv-x="1124" 
d="M986 814h-834v161h834v-161zM986 399h-834v160h834v-160z" />
    <glyph glyph-name="greater" unicode="&#x3e;" horiz-adv-x="1070" 
d="M795 650l-661 259v190l854 -378v-146l-854 -379v192z" />
    <glyph glyph-name="question" unicode="?" horiz-adv-x="967" 
d="M357 410q1 72 10 123t29 93t52.5 81.5t80.5 88.5q34 35 65.5 66.5t55 65t37.5 72.5t14 90q0 105 -55 164.5t-160 59.5q-44 0 -84.5 -11.5t-72 -36t-50.5 -62t-19 -89.5h-185q1 85 33 152t87 113.5t129.5 71t161.5 24.5q96 0 170.5 -26.5t125.5 -76t77.5 -120t26.5 -157.5
q0 -68 -21 -127t-56.5 -112.5t-80.5 -101t-93 -92.5q-55 -51 -74 -115t-19 -138h-185zM349 93q0 45 27.5 75.5t81.5 30.5t82 -30.5t28 -75.5t-28 -74.5t-82 -29.5t-81.5 29.5t-27.5 74.5z" />
    <glyph glyph-name="at" unicode="@" horiz-adv-x="1839" 
d="M1735 502q-3 -61 -14 -124t-32 -121t-53.5 -108.5t-77 -88t-102.5 -59t-130 -21.5q-94 0 -154.5 44t-85.5 124q-54 -85 -123.5 -126.5t-143.5 -41.5t-128.5 31.5t-89 88.5t-47.5 137.5t-4 179.5q12 132 52 238t99 180t131.5 114t149.5 40q54 0 95.5 -8.5t75 -23t62 -33.5
t56.5 -41l-52 -554q-6 -73 4 -118.5t29.5 -70.5t45 -33.5t49.5 -8.5q60 0 107 31.5t79.5 86t51 128.5t21.5 158q9 187 -25 334.5t-113 250.5t-204.5 157.5t-299.5 54.5q-157 0 -284 -59.5t-217.5 -168t-142.5 -259.5t-60 -334q-9 -187 29.5 -336t120 -253.5t204 -160.5
t282.5 -56q44 0 89.5 5.5t89 16t82.5 25t70 32.5l37 -115q-35 -22 -80 -38.5t-94.5 -28t-100.5 -17t-97 -5.5q-190 0 -338.5 64.5t-249 185.5t-149.5 293.5t-40 387.5q9 205 73 379.5t174.5 302t264 199.5t341.5 72q192 0 339.5 -65.5t245 -186t144.5 -292.5t38 -385z
M709 417q-14 -142 26.5 -218t128.5 -76q26 0 54 11t55.5 34.5t52.5 61t45 90.5q0 6 1 9l46 503q-25 13 -55 21t-65 8q-54 0 -102.5 -28t-86.5 -84t-64 -139t-36 -193z" />
    <glyph glyph-name="A" unicode="A" horiz-adv-x="1336" 
d="M973 380h-610l-137 -380h-198l556 1456h168l557 -1456h-197zM421 538h495l-248 681z" />
    <glyph glyph-name="B" unicode="B" horiz-adv-x="1275" 
d="M169 0v1456h476q112 0 200 -22.5t149.5 -70t94 -120.5t32.5 -175t-58 -180.5t-158 -121.5q61 -17 108.5 -50t80 -78t49.5 -101t17 -117q0 -102 -34.5 -180.5t-97.5 -132t-152 -80.5t-198 -27h-509zM361 681v-524h317q69 0 122.5 18.5t90.5 52t56.5 82t19.5 108.5t-16 109
t-50.5 83t-87.5 52.5t-126 18.5h-326zM361 835h290q62 0 113 16t87.5 46t56.5 73.5t20 98.5q0 120 -70 174.5t-213 54.5h-284v-463z" />
    <glyph glyph-name="C" unicode="C" horiz-adv-x="1333" 
d="M1240 462q-12 -103 -50.5 -191.5t-106.5 -153t-166 -101t-229 -36.5q-129 0 -234 48t-179.5 136.5t-115 212.5t-40.5 277v146q0 153 41 277.5t117 213t184.5 137t243.5 48.5q123 0 218 -36t161.5 -100.5t105.5 -154t50 -197.5h-193q-11 76 -34 137t-63.5 104t-100.5 66
t-144 23q-97 0 -170.5 -37.5t-123 -105t-74.5 -163t-25 -210.5v-148q0 -107 22.5 -201t68.5 -164.5t117 -111t168 -40.5q92 0 155 22t104.5 63.5t64.5 102t35 137.5h193z" />
    <glyph glyph-name="D" unicode="D" horiz-adv-x="1343" 
d="M169 0v1456h411q144 0 262 -48t202.5 -137t131 -216t46.5 -285v-86q0 -158 -46.5 -285t-132 -215.5t-207.5 -136t-273 -47.5h-394zM361 1298v-1141h202q116 0 204 37.5t147 106.5t88.5 166t29.5 217v89q0 125 -30 222.5t-88 165t-142 102.5t-192 35h-219z" />
    <glyph glyph-name="E" unicode="E" horiz-adv-x="1164" 
d="M992 673h-631v-516h733v-157h-925v1456h915v-158h-723v-468h631v-157z" />
    <glyph glyph-name="F" unicode="F" horiz-adv-x="1132" 
d="M972 643h-611v-643h-192v1456h902v-158h-710v-498h611v-157z" />
    <glyph glyph-name="G" unicode="G" horiz-adv-x="1395" 
d="M1244 191q-21 -30 -58 -66.5t-97.5 -68.5t-148.5 -54t-211 -22q-133 0 -244.5 47t-192 135.5t-125.5 217t-45 291.5v114q0 163 38.5 291t113 217t183.5 136t250 47q125 0 219 -33.5t160 -93t105 -141.5t53 -179h-192q-11 59 -34.5 111.5t-64.5 92t-101 62.5t-144 23
q-102 0 -176 -37t-122 -106t-71.5 -167t-23.5 -221v-116q0 -126 30 -225t84.5 -168t131 -105t169.5 -36q78 0 132.5 10.5t92 26t60.5 34t38 34.5v327h-337v156h528v-534z" />
    <glyph glyph-name="H" unicode="H" horiz-adv-x="1460" 
d="M1288 0h-193v673h-734v-673h-192v1456h192v-626h734v626h193v-1456z" />
    <glyph glyph-name="I" unicode="I" horiz-adv-x="557" 
d="M375 0h-192v1456h192v-1456z" />
    <glyph glyph-name="J" unicode="J" horiz-adv-x="1130" 
d="M779 1456h193v-1031q0 -108 -34 -191.5t-95.5 -139.5t-146 -85t-184.5 -29q-101 0 -185 25.5t-145 78t-95 132t-34 186.5h192q0 -69 20 -119t55 -82.5t84 -48t108 -15.5q57 0 106 18.5t85 54.5t56 90t20 125v1031z" />
    <glyph glyph-name="K" unicode="K" horiz-adv-x="1284" 
d="M539 677l-178 -185v-492h-192v1456h192v-720l158 176l489 544h232l-573 -643l618 -813h-230z" />
    <glyph glyph-name="L" unicode="L" horiz-adv-x="1102" 
d="M362 157h690v-157h-883v1456h193v-1299z" />
    <glyph glyph-name="M" unicode="M" horiz-adv-x="1788" 
d="M417 1456l476 -1188l476 1188h249v-1456h-192v567l18 612l-478 -1179h-147l-477 1176l19 -609v-567h-192v1456h248z" />
    <glyph glyph-name="N" unicode="N" horiz-adv-x="1460" 
d="M1288 0h-193l-733 1122v-1122h-193v1456h193l735 -1127v1127h191v-1456z" />
    <glyph glyph-name="O" unicode="O" horiz-adv-x="1408" 
d="M1289 681q0 -164 -41.5 -293.5t-117.5 -220.5t-184 -139t-241 -48q-129 0 -237 48t-186 139t-121 220.5t-43 293.5v92q0 163 43 293.5t120 221.5t185 139.5t237 48.5q133 0 241.5 -48.5t185 -139.5t118 -221.5t41.5 -293.5v-92zM1098 775q0 130 -26.5 230t-77.5 168
t-124.5 103t-166.5 35q-89 0 -162 -35t-124.5 -103t-79.5 -168t-28 -230v-94q0 -131 28.5 -231t80.5 -168.5t125 -103.5t162 -35q94 0 167 35t123.5 103.5t76.5 168.5t26 231v94z" />
    <glyph glyph-name="P" unicode="P" horiz-adv-x="1292" 
d="M361 570v-570h-192v1456h537q124 0 219 -33t159.5 -92.5t98 -141t33.5 -178.5q0 -105 -33.5 -187.5t-98 -138.5t-159.5 -85.5t-219 -29.5h-345zM361 727h345q84 0 144.5 21t99 58.5t56.5 89t18 113.5q0 56 -18 108.5t-56.5 92.5t-99 64t-144.5 24h-345v-571z" />
    <glyph glyph-name="Q" unicode="Q" horiz-adv-x="1408" 
d="M1281 681q0 -211 -67 -363.5t-188 -238.5l260 -204l-131 -121l-307 244q-72 -18 -152 -18q-129 0 -237 48t-186 139t-121 220.5t-43 293.5v92q0 163 43 293.5t120 221.5t185 139.5t237 48.5q133 0 241.5 -48.5t185.5 -139.5t118.5 -221.5t41.5 -293.5v-92zM1089 775
q0 130 -26.5 230t-77 168t-124 103t-167.5 35q-89 0 -161.5 -35t-124 -103t-79.5 -168t-28 -230v-94q0 -131 28.5 -231t80 -168.5t124.5 -103.5t162 -35q94 0 167 35t123.5 103.5t76.5 168.5t26 231v94z" />
    <glyph glyph-name="R" unicode="R" horiz-adv-x="1261" 
d="M703 589h-342v-589h-193v1456h482q246 0 378.5 -112t132.5 -326q0 -136 -73.5 -237t-204.5 -151l342 -618v-12h-206zM361 746h295q78 0 136.5 21.5t97.5 58t58.5 86t19.5 106.5q0 63 -18.5 114.5t-57.5 88.5t-99 57t-143 20h-289v-552z" />
    <glyph glyph-name="S" unicode="S" horiz-adv-x="1215" 
d="M945 368q0 51 -15.5 90t-55 71.5t-106.5 61t-170 58.5q-108 31 -195.5 70.5t-149 91t-94.5 117.5t-33 151t35.5 157.5t100.5 126t156 83.5t203 30q123 0 219 -37t161.5 -98t99.5 -141t34 -165h-193q0 61 -19.5 113t-59.5 90t-100 59t-142 21q-77 0 -134 -18t-94 -49.5
t-55 -74.5t-18 -94q0 -46 19.5 -84t60.5 -70t105.5 -59t154.5 -52q124 -35 214 -77.5t148.5 -96.5t87 -121t28.5 -152q0 -89 -36 -161t-102.5 -123t-160 -78.5t-208.5 -27.5q-67 0 -134 12.5t-128.5 37.5t-114 62t-91.5 86t-61 110t-22 134h193q0 -75 29.5 -128.5t79 -88.5
t114 -51.5t135.5 -16.5q152 0 233 62t81 169z" />
    <glyph glyph-name="T" unicode="T" horiz-adv-x="1222" 
d="M1175 1298h-468v-1298h-191v1298h-467v158h1126v-158z" />
    <glyph glyph-name="U" unicode="U" horiz-adv-x="1328" 
d="M1194 1456v-986q0 -123 -43 -215t-115.5 -153t-168.5 -91.5t-202 -30.5q-111 0 -207 30.5t-166.5 91.5t-111 153t-40.5 215v986h190v-986q0 -85 24.5 -147.5t68.5 -104t105.5 -61.5t136.5 -20q76 0 138 20t106 61.5t68 104t24 147.5v986h193z" />
    <glyph glyph-name="V" unicode="V" horiz-adv-x="1303" 
d="M651 255l416 1201h210l-540 -1456h-170l-539 1456h209z" />
    <glyph glyph-name="W" unicode="W" horiz-adv-x="1817" 
d="M483 459l28 -192l41 173l288 1016h162l281 -1016l40 -176l31 196l226 996h193l-353 -1456h-175l-300 1061l-23 111l-23 -111l-311 -1061h-175l-352 1456h192z" />
    <glyph glyph-name="X" unicode="X" horiz-adv-x="1284" 
d="M644 898l349 558h226l-460 -722l471 -734h-228l-358 568l-360 -568h-227l472 734l-461 722h225z" />
    <glyph glyph-name="Y" unicode="Y" horiz-adv-x="1230" 
d="M613 725l380 731h218l-502 -913v-543h-192v543l-502 913h220z" />
    <glyph glyph-name="Z" unicode="Z" horiz-adv-x="1226" 
d="M313 157h833v-157h-1060v144l798 1154h-785v158h1015v-141z" />
    <glyph glyph-name="bracketleft" unicode="[" horiz-adv-x="543" 
d="M523 1512h-191v-1672h191v-152h-377v1976h377v-152z" />
    <glyph glyph-name="backslash" unicode="\" horiz-adv-x="840" 
d="M40 1456h176l608 -1581h-176z" />
    <glyph glyph-name="bracketright" unicode="]" horiz-adv-x="543" 
d="M9 1664h378v-1976h-378v152h193v1672h-193v152z" />
    <glyph glyph-name="asciicircum" unicode="^" horiz-adv-x="856" 
d="M426 1211l-190 -482h-172l299 727h127l298 -727h-171z" />
    <glyph glyph-name="underscore" unicode="_" horiz-adv-x="924" 
d="M920 -151h-916v151h916v-151z" />
    <glyph glyph-name="grave" unicode="`" horiz-adv-x="633" 
d="M474 1240h-159l-258 294h223z" />
    <glyph glyph-name="a" unicode="a" horiz-adv-x="1114" 
d="M808 0q-10 20 -16 50.5t-10 63.5q-26 -27 -58.5 -51.5t-71 -43t-83.5 -29t-95 -10.5q-83 0 -150.5 25t-115 68t-73.5 101.5t-26 125.5q0 87 34 153.5t97.5 111.5t153.5 68t201 23h184v85q0 97 -58 154.5t-171 57.5q-52 0 -95 -14t-73.5 -37.5t-47.5 -54.5t-17 -65h-186
q0 58 30.5 115t86.5 102.5t135.5 74t177.5 28.5q88 0 162.5 -22.5t127.5 -68t83 -113.5t30 -159v-503q0 -55 9.5 -115.5t28.5 -104.5v-16h-194zM501 141q50 0 94 14t80 36.5t62.5 51.5t41.5 60v222h-154q-159 0 -245 -49.5t-86 -149.5q0 -39 13 -73t39.5 -58.5t65 -39
t89.5 -14.5z" />
    <glyph glyph-name="b" unicode="b" horiz-adv-x="1149" 
d="M1056 529q0 -119 -28 -219.5t-82 -174t-132 -114.5t-178 -41q-107 0 -185 37.5t-132 107.5l-9 -125h-170v1536h185v-573q54 67 130 103t179 36q102 0 180.5 -40t132 -112.5t81.5 -174t28 -225.5v-21zM871 550q0 81 -15 152.5t-48.5 125.5t-87.5 85.5t-132 31.5
q-51 0 -92 -13t-73.5 -36t-56.5 -54t-41 -67v-468q18 -36 42.5 -67t57 -54t73.5 -36t92 -13q75 0 128 31t87 84t50 124.5t16 152.5v21z" />
    <glyph glyph-name="c" unicode="c" horiz-adv-x="1072" 
d="M574 131q49 0 94 16t79.5 44t56 66.5t25.5 83.5h175q-4 -72 -39.5 -137.5t-93.5 -115t-134.5 -79t-162.5 -29.5q-122 0 -212.5 43.5t-150.5 117.5t-89.5 172t-29.5 207v42q0 109 29.5 207t89.5 172t150 117.5t212 43.5q95 0 172.5 -30t134 -82.5t88.5 -124.5t36 -155
h-175q-4 50 -23.5 93.5t-52.5 76t-78.5 51.5t-101.5 19q-86 0 -142.5 -34t-91 -89.5t-48.5 -125t-14 -139.5v-42q0 -72 14 -141.5t48 -124.5t91 -89t144 -34z" />
    <glyph glyph-name="d" unicode="d" horiz-adv-x="1155" 
d="M95 550q0 124 30.5 225.5t86.5 174t134.5 112.5t175.5 40q99 0 173 -33.5t128 -96.5v564h185v-1536h-170l-9 116q-54 -66 -130 -101t-179 -35q-95 0 -173.5 41t-134.5 114.5t-86.5 174t-30.5 219.5v21zM280 529q0 -81 16.5 -152.5t51.5 -124.5t89 -84t129 -31
q49 0 88 11.5t70.5 32.5t56 50t42.5 64v497q-18 33 -42 61t-55.5 48.5t-70.5 32t-87 11.5q-76 0 -130.5 -31.5t-89.5 -85.5t-51.5 -125.5t-16.5 -152.5v-21z" />
    <glyph glyph-name="e" unicode="e" horiz-adv-x="1085" 
d="M589 -20q-113 0 -204.5 39t-156.5 108.5t-100 165.5t-35 210v42q0 132 39.5 236t105.5 175t151 108.5t177 37.5q116 0 200 -40.5t138.5 -111.5t80.5 -168t26 -211v-83h-733q2 -75 24.5 -140t64 -113t100 -76t132.5 -28q98 0 166 40t119 106l113 -88q-26 -40 -63 -77.5
t-86.5 -67t-113.5 -47t-145 -17.5zM566 950q-56 0 -103 -20.5t-84 -59.5t-61.5 -97t-33.5 -133h542v14q-3 54 -17.5 107t-45 95t-78.5 68t-119 26z" />
    <glyph glyph-name="f" unicode="f" horiz-adv-x="711" 
d="M231 0v939h-171v143h171v114q0 87 24.5 154.5t70.5 113.5t112 69.5t149 23.5q64 0 127 -17l-10 -150q-21 4 -47.5 6.5t-52.5 2.5q-90 0 -139 -52.5t-49 -150.5v-114h231v-143h-231v-939h-185z" />
    <glyph glyph-name="g" unicode="g" horiz-adv-x="1149" 
d="M96 550q0 124 29.5 225.5t85 174t134.5 112.5t178 40q103 0 179 -36t130 -104l9 120h169v-1059q0 -107 -33.5 -190.5t-94.5 -141t-145 -87.5t-186 -30q-42 0 -96.5 9.5t-110 31t-106.5 57.5t-87 89l96 111q34 -42 70 -70t72.5 -45t74 -24.5t74.5 -7.5q65 0 118 18.5
t90.5 55.5t57.5 90.5t20 124.5v94q-54 -62 -128.5 -95t-174.5 -33q-97 0 -175.5 41t-134 114.5t-85.5 174t-30 219.5v21zM282 529q0 -81 16.5 -152.5t51 -124.5t88.5 -84t129 -31q49 0 88.5 12t71 33t55.5 50t42 64v494q-18 33 -42 61.5t-55.5 49.5t-70.5 32.5t-87 11.5
q-76 0 -130 -31.5t-89 -85.5t-51.5 -125.5t-16.5 -152.5v-21z" />
    <glyph glyph-name="h" unicode="h" horiz-adv-x="1128" 
d="M325 951q58 71 139 111t181 40q79 0 143 -21.5t109 -69t69.5 -122t24.5 -180.5v-709h-185v711q0 63 -14 107.5t-41.5 72.5t-68 41t-93.5 13q-90 0 -158 -48t-106 -126v-771h-185v1536h185v-585z" />
    <glyph glyph-name="i" unicode="i" horiz-adv-x="497" 
d="M341 0h-185v1082h185v-1082zM141 1369q0 45 27.5 76t81.5 31t82 -31t28 -76t-28 -75t-82 -30t-81.5 30t-27.5 75z" />
    <glyph glyph-name="j" unicode="j" horiz-adv-x="489" 
d="M331 1082v-1211q0 -150 -70 -229t-213 -79q-26 0 -58 5t-55 13v148q20 -5 43.5 -6.5t40.5 -1.5q62 0 94.5 33.5t32.5 116.5v1211h185zM127 1369q0 44 27.5 75.5t80.5 31.5q54 0 82 -31t28 -76t-28 -75t-82 -30t-81 30t-27 75z" />
    <glyph glyph-name="k" unicode="k" horiz-adv-x="1038" 
d="M442 501l-116 -121v-380h-185v1536h185v-929l99 119l337 356h225l-421 -452l470 -630h-217z" />
    <glyph glyph-name="l" unicode="l" horiz-adv-x="497" 
d="M341 0h-185v1536h185v-1536z" />
    <glyph glyph-name="m" unicode="m" horiz-adv-x="1795" 
d="M314 1082l5 -120q56 66 135.5 103t185.5 37q105 0 185.5 -41.5t123.5 -132.5q54 78 140.5 126t204.5 48q87 0 154 -22.5t113.5 -70.5t70.5 -122t24 -176v-711h-185v712q0 68 -16.5 113t-46.5 72t-73 37.5t-95 10.5q-57 0 -101 -18t-75.5 -48.5t-50 -72t-23.5 -88.5v-718
h-186v711q0 63 -16.5 107.5t-46.5 72.5t-72.5 41t-95.5 13q-99 0 -159 -43t-90 -112v-790h-185v1082h175z" />
    <glyph glyph-name="n" unicode="n" horiz-adv-x="1130" 
d="M315 1082l6 -136q58 73 140 114.5t184 41.5q79 0 143 -21.5t109 -69t69.5 -122t24.5 -180.5v-709h-185v711q0 63 -14 107.5t-41.5 72.5t-68 41t-93.5 13q-90 0 -158 -48t-106 -126v-771h-185v1082h175z" />
    <glyph glyph-name="o" unicode="o" horiz-adv-x="1168" 
d="M91 551q0 118 34.5 218.5t98 174.5t154.5 116t204 42q115 0 206.5 -42t155.5 -116t98 -174.5t34 -218.5v-22q0 -118 -34 -218.5t-98 -174t-155 -115t-205 -41.5t-205 41.5t-155 115t-98.5 174t-34.5 218.5v22zM277 529q0 -81 19 -153t57.5 -126.5t96 -86.5t134.5 -32
q76 0 134 32t96 86.5t57.5 126.5t19.5 153v22q0 80 -19.5 152.5t-58 127t-96.5 87t-135 32.5q-76 0 -133 -32.5t-95.5 -87t-57.5 -127t-19 -152.5v-22z" />
    <glyph glyph-name="p" unicode="p" horiz-adv-x="1149" 
d="M1054 529q0 -119 -28 -219.5t-81.5 -174t-131.5 -114.5t-178 -41q-102 0 -178.5 32t-131.5 93v-521h-185v1498h169l9 -120q55 68 133 104t181 36q102 0 180.5 -40t132.5 -112.5t81.5 -174t27.5 -225.5v-21zM869 550q0 81 -17 152.5t-53 125.5t-91 85.5t-131 31.5
q-47 0 -85.5 -11t-69.5 -31t-55 -47.5t-42 -59.5v-517q18 -32 42 -59.5t55 -47t70 -30.5t87 -11q75 0 129.5 32t90.5 86t53 126.5t17 153.5v21z" />
    <glyph glyph-name="q" unicode="q" horiz-adv-x="1164" 
d="M95 550q0 124 29 225.5t84.5 174t135.5 112.5t182 40q99 0 174 -33t129 -96l8 109h170v-1498h-185v516q-54 -58 -128 -89t-170 -31q-101 0 -180.5 41t-134.5 114.5t-84.5 174t-29.5 219.5v21zM280 529q0 -81 17 -153.5t53 -126.5t90.5 -86t129.5 -32q92 0 153 41t99 105
v530q-19 31 -43.5 57t-55.5 45t-68.5 30t-82.5 11q-76 0 -131 -32.5t-91 -87t-53 -127t-17 -153.5v-21z" />
    <glyph glyph-name="r" unicode="r" horiz-adv-x="693" 
d="M663 916q-24 4 -44.5 5.5t-46.5 1.5q-96 0 -156.5 -42t-90.5 -113v-768h-185v1082h180l3 -125q42 67 105 106t153 39q20 0 46 -4.5t36 -9.5v-172z" />
    <glyph glyph-name="s" unicode="s" horiz-adv-x="1056" 
d="M770 287q0 30 -9 56.5t-35.5 50t-75.5 43.5t-129 37q-90 19 -162 45t-122.5 62.5t-77.5 86.5t-27 117q0 64 28.5 121.5t80.5 101t126 69t165 25.5q97 0 173.5 -26.5t130 -72.5t81.5 -107.5t28 -131.5h-186q0 33 -15 66.5t-44 60t-71 43t-97 16.5q-58 0 -98.5 -13.5
t-66.5 -36t-38 -51t-12 -58.5t10 -54t38 -43.5t76.5 -36t125.5 -33.5q99 -23 172 -52t121 -67.5t71.5 -88.5t23.5 -116q0 -71 -29.5 -130t-84.5 -101t-132 -65.5t-171 -23.5q-108 0 -190.5 30t-138.5 79.5t-85 113t-29 130.5h185q3 -57 27.5 -95.5t61.5 -62.5t81 -34t88 -10
q57 0 100 12t72.5 33t44.5 49.5t15 61.5z" />
    <glyph glyph-name="t" unicode="t" horiz-adv-x="669" 
d="M391 1344v-262h202v-143h-202v-671q0 -42 10 -67.5t26.5 -39.5t38 -18.5t44.5 -4.5t48.5 4.5t39.5 7.5v-150q-22 -6 -57 -13t-85 -7q-51 0 -96.5 14.5t-79.5 48.5t-54 89.5t-20 136.5v670h-197v143h197v262h185z" />
    <glyph glyph-name="u" unicode="u" horiz-adv-x="1129" 
d="M808 107q-51 -60 -129 -93.5t-188 -33.5q-80 0 -145 22.5t-112 71t-72.5 125t-25.5 184.5v699h185v-701q0 -73 17 -120.5t45 -75t64 -38t74 -10.5q113 0 181.5 43t100.5 115v787h185v-1082h-176z" />
    <glyph glyph-name="v" unicode="v" horiz-adv-x="992" 
d="M497 251l268 831h189l-388 -1082h-141l-392 1082h189z" />
    <glyph glyph-name="w" unicode="w" horiz-adv-x="1539" 
d="M1098 255l208 827h185l-315 -1082h-150l-263 820l-256 -820h-150l-314 1082h184l213 -810l252 810h149z" />
    <glyph glyph-name="x" unicode="x" horiz-adv-x="1015" 
d="M503 687l240 395h216l-354 -535l365 -547h-214l-250 405l-250 -405h-215l365 547l-354 535h214z" />
    <glyph glyph-name="y" unicode="y" horiz-adv-x="969" 
d="M494 271l252 811h198l-435 -1249q-15 -40 -39 -87t-62.5 -87.5t-92.5 -68t-127 -27.5q-11 0 -26 2t-30 4.5t-28 5t-20 4.5v150q4 -1 11 -1.5t14.5 -1t14 -1t10.5 -0.5q47 0 83 9t64 29.5t48.5 54.5t37.5 84l41 110l-386 1070h202z" />
    <glyph glyph-name="z" unicode="z" horiz-adv-x="1015" 
d="M314 151h633v-151h-859v136l597 793h-588v153h820v-131z" />
    <glyph glyph-name="braceleft" unicode="{" horiz-adv-x="693" 
d="M632 -366q-102 29 -170.5 76t-109.5 107t-58.5 132t-17.5 150v206q0 54 -12 98t-37.5 75t-66 48t-96.5 17v145q112 0 162 64t50 173v207q0 79 17.5 150.5t58.5 132t109.5 107t170.5 75.5l38 -115q-59 -19 -99 -53t-64.5 -79.5t-35 -101t-10.5 -116.5v-207
q0 -101 -39.5 -182t-127.5 -128q87 -47 127 -128.5t40 -181.5v-206q0 -62 10.5 -117t35 -100.5t64.5 -79.5t99 -53z" />
    <glyph glyph-name="bar" unicode="|" horiz-adv-x="499" 
d="M324 -270h-149v1726h149v-1726z" />
    <glyph glyph-name="braceright" unicode="}" horiz-adv-x="693" 
d="M19 -251q59 19 99.5 53t65 79.5t35 100.5t10.5 117v206q0 104 43 185t138 125q-95 43 -138 124t-43 186v207q0 61 -10.5 116.5t-35 101t-64.5 79.5t-99 53l38 115q102 -29 170.5 -75.5t110 -107t58.5 -132t17 -150.5v-207q0 -54 12 -98t37.5 -75t66 -47.5t96.5 -16.5
v-145q-56 0 -96.5 -17t-66 -48t-37.5 -75t-12 -98v-206q0 -78 -17 -150t-58.5 -132t-110 -107t-170.5 -76z" />
    <glyph glyph-name="asciitilde" unicode="~" horiz-adv-x="1393" 
d="M1263 777q0 -77 -24 -145t-67 -119t-102.5 -81t-130.5 -30q-44 0 -81.5 9t-73 26t-70 43t-73.5 61q-52 47 -94.5 72.5t-92.5 25.5q-78 0 -120 -53.5t-42 -147.5l-161 -2q0 78 23.5 145t66.5 116t102 77t131 28q43 0 81.5 -9.5t74 -27t70.5 -43.5t72 -59
q27 -25 50.5 -43.5t45.5 -30.5t44 -18t47 -6q39 0 70.5 15.5t54 43.5t34.5 66.5t12 85.5z" />
    <glyph glyph-name="uni00A0" unicode="&#xa0;" horiz-adv-x="560" 
 />
    <glyph glyph-name="exclamdown" unicode="&#xa1;" horiz-adv-x="499" 
d="M170 684h168l13 -1044h-194zM358 996q0 -45 -27.5 -76t-81.5 -31t-82 31t-28 76t28 75t82 30t81.5 -30t27.5 -75z" />
    <glyph glyph-name="cent" unicode="&#xa2;" horiz-adv-x="1121" 
d="M587 131q49 0 94 16t79.5 44t56 66.5t25.5 83.5h175q-3 -63 -31 -121.5t-74.5 -105.5t-108.5 -80t-133 -46v-233h-186v235q-96 17 -167 65.5t-118.5 119.5t-70.5 159.5t-23 185.5v42q0 96 23.5 184.5t70.5 159.5t118 119.5t167 66.5v226h186v-223q77 -12 139.5 -46.5
t107.5 -85t71 -115.5t29 -138h-175q-4 50 -23.5 93.5t-52.5 76t-78.5 51.5t-101.5 19q-86 0 -142.5 -34t-91 -89.5t-48.5 -125t-14 -139.5v-42q0 -72 14 -141.5t48 -124.5t91 -89t144 -34z" />
    <glyph glyph-name="sterling" unicode="&#xa3;" horiz-adv-x="1190" 
d="M449 622l8 -220q0 -70 -15 -134t-47 -111h733l-1 -157h-1032v157h77q26 6 43.5 32.5t28.5 62.5t15.5 76t4.5 73l-8 221h-165v157h160l-9 260q0 103 33.5 184.5t93 137.5t141 85.5t177.5 29.5q97 0 174 -28.5t129.5 -79.5t80.5 -122.5t28 -158.5h-191q0 63 -20 106.5
t-53 71.5t-76 40.5t-89 12.5q-49 0 -92 -18.5t-74.5 -54t-50 -87.5t-18.5 -119l9 -260h319v-157h-314z" />
    <glyph glyph-name="currency" unicode="&#xa4;" horiz-adv-x="1460" 
d="M1103 112q-76 -63 -169.5 -97.5t-198.5 -34.5q-104 0 -197 34t-169 96l-134 -136l-130 135l139 141q-50 75 -77 165.5t-27 192.5q0 106 29.5 199t82.5 170l-147 151l130 136l147 -150q75 57 164 88.5t189 31.5t190 -32t165 -89l149 152l132 -137l-151 -154
q52 -77 81 -169.5t29 -196.5q0 -100 -27 -190t-75 -165l143 -144l-132 -136zM311 608q0 -95 33.5 -178t91 -145t134.5 -98t165 -36q87 0 164 36t134.5 98t90.5 145t33 178q0 94 -33 177t-90.5 144.5t-134.5 97t-164 35.5q-88 0 -165 -35.5t-134.5 -97t-91 -144.5t-33.5 -177
z" />
    <glyph glyph-name="yen" unicode="&#xa5;" horiz-adv-x="1240" 
d="M614 782l364 674h219l-418 -720h312v-125h-384v-165h384v-124h-384v-322h-193v322h-378v124h378v165h-378v125h313l-418 720h220z" />
    <glyph glyph-name="brokenbar" unicode="&#xa6;" horiz-adv-x="491" 
d="M147 -270v791h186v-791h-186zM333 698h-186v758h186v-758z" />
    <glyph glyph-name="section" unicode="&#xa7;" horiz-adv-x="1256" 
d="M1145 431q0 -96 -49 -165t-137 -109q69 -49 105 -117t36 -168q0 -87 -35 -155t-98.5 -115.5t-153.5 -72t-201 -24.5q-96 0 -190 22t-167.5 72t-119 132.5t-45.5 204.5l186 2q0 -79 30.5 -133t78.5 -87t108 -47t119 -14q72 0 128.5 16.5t95 45t58.5 67.5t20 84
q0 46 -17 80.5t-57.5 63.5t-108 55.5t-168.5 56.5q-110 29 -196.5 64t-146.5 84t-92 116t-32 161q0 93 47.5 162.5t134.5 111.5q-66 49 -101.5 117t-35.5 168q0 83 34.5 150.5t98.5 115.5t154.5 74t201.5 26q115 0 206 -28.5t154.5 -83t97.5 -135t34 -184.5h-185
q0 58 -20 109t-59 89t-96 60t-132 22q-78 0 -135.5 -17t-94.5 -46t-55 -68t-18 -82q0 -50 15 -85.5t54 -64t106.5 -54t173.5 -54.5q112 -31 199 -66t147 -83.5t91.5 -114.5t31.5 -159zM602 691q-90 24 -165 51q-80 -19 -117.5 -69.5t-37.5 -119.5q0 -51 15 -87.5t55 -65.5
t108.5 -55t175.5 -56q45 -13 85 -25t76 -26q78 20 120 70.5t42 119.5q0 46 -17.5 81.5t-58.5 65.5t-110 57.5t-171 58.5z" />
    <glyph glyph-name="dieresis" unicode="&#xa8;" horiz-adv-x="856" 
d="M102 1371q0 45 27.5 75.5t81.5 30.5t82 -30.5t28 -75.5t-28 -75t-82 -30t-81.5 30t-27.5 75zM532 1369q0 45 27.5 76t81.5 31t82 -31t28 -76t-28 -75t-82 -30t-81.5 30t-27.5 75z" />
    <glyph glyph-name="copyright" unicode="&#xa9;" horiz-adv-x="1609" 
d="M1119 597q0 -79 -23 -138t-66 -98t-104.5 -58.5t-137.5 -19.5q-80 0 -144 28t-109 79t-69 122.5t-24 157.5v116q0 86 24 157t69 122t109 79.5t144 28.5q76 0 137.5 -19.5t104.5 -58.5t66.5 -98t23.5 -137h-146q0 99 -47.5 141.5t-138.5 42.5q-50 0 -87.5 -19t-63 -53
t-38.5 -81.5t-13 -103.5v-117q0 -57 13 -104.5t38.5 -81.5t63 -53t87.5 -19q92 0 138.5 42t46.5 143h146zM206 729q0 -134 47 -249t127.5 -200t189 -133.5t231.5 -48.5t231 48.5t188.5 133.5t127.5 200t47 249q0 133 -47 247.5t-127.5 199t-188.5 132.5t-231 48t-231.5 -48
t-189 -132.5t-127.5 -199t-47 -247.5zM91 729q0 106 25.5 202.5t71.5 179.5t111 150.5t144 115t169.5 73.5t188.5 26t188.5 -26t169 -73.5t143.5 -115t111 -150.5t71.5 -179.5t25.5 -202.5t-25.5 -202.5t-71.5 -180t-111 -151t-143.5 -116t-169 -74.5t-188.5 -26t-188.5 26
t-169.5 74.5t-144 116t-111 151t-71.5 180t-25.5 202.5z" />
    <glyph glyph-name="ordfeminine" unicode="&#xaa;" horiz-adv-x="915" 
d="M618 705q-12 34 -18 72q-31 -35 -81.5 -60.5t-122.5 -25.5q-60 0 -106.5 16t-78 46t-48 72t-16.5 93q0 111 83.5 171t255.5 60h108v52q0 66 -30.5 100.5t-93.5 34.5q-69 0 -108.5 -27t-39.5 -78l-161 12q0 51 22 93.5t62.5 73.5t97.5 48.5t127 17.5q64 0 117 -17.5
t91 -52t58.5 -86t20.5 -120.5v-314q0 -49 6 -93t20 -88h-165zM435 828q43 0 87 20t72 47v142h-107q-46 0 -79.5 -9t-55 -25t-32 -36.5t-10.5 -44.5q0 -44 30 -69t95 -25z" />
    <glyph glyph-name="guillemotleft" unicode="&#xab;" horiz-adv-x="1184" 
d="M448 1q-312 463 -313 523q0 70 313 464h200q-311 -395 -311 -465q0 -60 309 -522h-198zM876 1q-313 463 -313 523q-1 70 314 464h200q-311 -395 -311 -461q0 -65 308 -526h-198z" />
    <glyph glyph-name="logicalnot" unicode="&#xac;" horiz-adv-x="1134" 
d="M958 375h-186v264h-645v161h831v-425z" />
    <glyph glyph-name="uni00AD" unicode="&#xad;" horiz-adv-x="565" 
d="M525 543h-488v151h488v-151z" />
    <glyph glyph-name="registered" unicode="&#xae;" horiz-adv-x="1610" 
d="M90 729q0 106 25.5 202.5t71.5 179.5t111 150.5t144 115t169.5 73.5t188.5 26t188.5 -26t169 -73.5t143.5 -115t111 -150.5t71.5 -179.5t25.5 -202.5t-25.5 -202.5t-71.5 -180t-111 -151t-143.5 -116t-169 -74.5t-188.5 -26t-188.5 26t-169.5 74.5t-144 116t-111 151
t-71.5 180t-25.5 202.5zM205 729q0 -134 47 -249t127.5 -200t189 -133.5t231.5 -48.5t231 48.5t189 133.5t127.5 200t46.5 249q0 133 -46.5 247.5t-127.5 199t-189 132.5t-231 48t-231.5 -48t-189 -132.5t-127.5 -199t-47 -247.5zM653 654v-338h-141v849h276q74 0 133.5 -16
t101.5 -47.5t64.5 -80t22.5 -112.5q0 -63 -32.5 -109.5t-95.5 -78.5q34 -14 57.5 -35t38 -47.5t21 -58t6.5 -66.5v-55q0 -38 3.5 -71t13.5 -56v-16h-145q-5 13 -8 33t-4.5 41t-1.5 40v30v53q0 72 -33.5 106.5t-113.5 34.5h-163zM653 782h156q32 1 61 9t51 23t35 37.5
t13 52.5q0 37 -9.5 62.5t-30.5 41.5t-55.5 23t-85.5 7h-135v-256z" />
    <glyph glyph-name="macron" unicode="&#xaf;" horiz-adv-x="938" 
d="M834 1313h-714v143h714v-143z" />
    <glyph glyph-name="degree" unicode="&#xb0;" horiz-adv-x="765" 
d="M130 1216q0 53 20.5 100.5t55 83t81 56t98.5 20.5t97.5 -20.5t79.5 -56t54 -83t20 -100.5q0 -54 -20 -100.5t-54 -81t-79.5 -54.5t-97.5 -20t-98.5 20t-81 54.5t-55 81t-20.5 100.5zM255 1216q0 -28 10.5 -51.5t28 -40.5t41 -26.5t50.5 -9.5t50.5 9.5t41 26.5t27 40.5
t9.5 51.5t-9.5 52.5t-27 42.5t-41 28t-50.5 10t-50.5 -10t-41 -28t-28 -42.5t-10.5 -52.5z" />
    <glyph glyph-name="plusminus" unicode="&#xb1;" horiz-adv-x="1095" 
d="M650 855h363v-152h-363v-414h-167v414h-386v152h386v412h167v-412zM970 1h-835v151h835v-151z" />
    <glyph glyph-name="twosuperior" unicode="&#xb2;" horiz-adv-x="751" 
d="M683 667h-599v108l288 271q67 61 94 105t27 77q0 49 -32 79.5t-92 30.5q-75 0 -110.5 -38t-35.5 -95h-157q0 54 20.5 101.5t59 83t94 56.5t125.5 21q67 0 120 -16.5t90 -47.5t56.5 -75t19.5 -98q0 -40 -13.5 -75.5t-38 -70t-60 -69.5t-79.5 -75l-176 -145h399v-128z" />
    <glyph glyph-name="threesuperior" unicode="&#xb3;" horiz-adv-x="751" 
d="M265 1125h84q74 0 110 30.5t36 78.5q0 45 -31.5 74t-101.5 29q-28 0 -52 -6.5t-42 -18.5t-28 -29t-10 -38h-157q0 51 22 91.5t61 69.5t91.5 44.5t112.5 15.5q65 0 119 -14.5t92.5 -43t60 -70.5t21.5 -97t-35 -100.5t-101 -70.5q77 -21 113 -68t36 -116q0 -56 -23.5 -99
t-64.5 -72t-97 -44.5t-121 -15.5q-56 0 -109.5 13.5t-95.5 42t-67.5 72.5t-25.5 105h158q0 -45 39.5 -75t106.5 -30q70 0 106.5 30t36.5 81q0 62 -43.5 88.5t-116.5 26.5h-84v116z" />
    <glyph glyph-name="acute" unicode="&#xb4;" horiz-adv-x="642" 
d="M316 1534h224l-268 -294h-149z" />
    <glyph glyph-name="mu" unicode="&#xb5;" horiz-adv-x="1160" 
d="M339 1082v-622q0 -103 17 -167.5t47 -100.5t70 -49t86 -13q108 0 170 40.5t91 111.5v800h186v-1082h-166l-10 116q-43 -65 -108 -100.5t-155 -35.5q-73 0 -129.5 17.5t-98.5 55.5v-469h-185v1498h185z" />
    <glyph glyph-name="paragraph" unicode="&#xb6;" horiz-adv-x="1001" 
d="M646 0v520h-87q-119 0 -211 35t-154.5 97.5t-94.5 148.5t-32 187q0 100 32 186t94.5 148.5t154.5 98t211 35.5h273v-1456h-186z" />
    <glyph glyph-name="periodcentered" unicode="&#xb7;" horiz-adv-x="534" 
d="M147 729q0 48 28.5 80t85.5 32t86.5 -32t29.5 -80q0 -47 -29.5 -78.5t-86.5 -31.5t-85.5 31.5t-28.5 78.5z" />
    <glyph glyph-name="cedilla" unicode="&#xb8;" horiz-adv-x="507" 
d="M285 0l-12 -52q28 -5 55.5 -16.5t49.5 -32t35 -51t13 -73.5q0 -47 -19.5 -85.5t-58 -66.5t-95 -43t-130.5 -15l-7 107q34 0 64.5 5.5t53 17.5t35.5 31t13 45q0 25 -9.5 41.5t-29 27t-50.5 16.5t-73 10l32 134h133z" />
    <glyph glyph-name="onesuperior" unicode="&#xb9;" horiz-adv-x="697" 
d="M495 674h-157v601l-216 -57v128l355 117h18v-789z" />
    <glyph glyph-name="ordmasculine" unicode="&#xba;" horiz-adv-x="931" 
d="M122 1123q0 77 24 142t68.5 112t108 73t141.5 26q80 0 143.5 -26t108 -73t68 -112t23.5 -142v-80q0 -77 -23.5 -142t-68 -112t-107.5 -73t-142 -26t-142.5 26t-108.5 73t-69 112t-24 142v80zM285 1043q0 -46 11 -85t33.5 -67.5t56.5 -45t80 -16.5q45 0 78.5 16.5t55.5 45
t33 67.5t11 85v80q0 45 -11 84t-33.5 67.5t-56 45t-79.5 16.5q-45 0 -78.5 -16.5t-56 -45t-33.5 -67.5t-11 -84v-80z" />
    <glyph glyph-name="guillemotright" unicode="&#xbb;" horiz-adv-x="1184" 
d="M736 1h-198q309 462 309 522q0 70 -312 465h201q313 -394 313 -464q-1 -60 -313 -523zM308 1h-198q308 461 308 526q0 66 -311 461h200q315 -394 314 -464q0 -60 -313 -523z" />
    <glyph glyph-name="onequarter" unicode="&#xbc;" horiz-adv-x="1500" 
d="M1318 299h107v-130h-107v-169h-157v169h-375l-6 102l377 518h161v-490zM938 299h223v289l-17 -28zM458 664h-157v601l-216 -57v128l355 117h18v-789zM443 118l-104 66l711 1138l104 -66z" />
    <glyph glyph-name="onehalf" unicode="&#xbd;" horiz-adv-x="1589" 
d="M1481 0h-599v108l288 271q67 61 94 105t27 77q0 49 -32 79.5t-92 30.5q-75 0 -110.5 -38t-35.5 -95h-157q0 54 20.5 101.5t59 83t94 56.5t125.5 21q67 0 120 -16.5t90 -47.5t56.5 -75t19.5 -98q0 -40 -13.5 -75.5t-38 -70t-60 -69.5t-79.5 -75l-176 -145h399v-128z
M453 664h-157v601l-216 -57v128l355 117h18v-789zM399 118l-104 66l711 1138l104 -66z" />
    <glyph glyph-name="threequarters" unicode="&#xbe;" horiz-adv-x="1593" 
d="M1410 299h107v-130h-107v-169h-157v169h-375l-6 102l377 518h161v-490zM1030 299h223v289l-17 -28zM314 1126h84q74 0 110 30.5t36 78.5q0 45 -31.5 74t-101.5 29q-28 0 -52 -6.5t-42 -18.5t-28 -29t-10 -38h-157q0 51 22 91.5t61 69.5t91.5 44.5t112.5 15.5
q65 0 119 -14.5t92.5 -43t60 -70.5t21.5 -97t-35 -100.5t-101 -70.5q77 -21 113 -68t36 -116q0 -56 -23.5 -99t-64.5 -72t-97 -44.5t-121 -15.5q-56 0 -109.5 13.5t-95.5 42t-67.5 72.5t-25.5 105h158q0 -45 39.5 -75t106.5 -30q70 0 106.5 30t36.5 81q0 62 -43.5 88.5
t-116.5 26.5h-84v116zM570 118l-104 66l711 1138l104 -66z" />
    <glyph glyph-name="questiondown" unicode="&#xbf;" horiz-adv-x="969" 
d="M588 680q-1 -72 -10 -122t-29 -91t-52 -80t-78 -89q-32 -35 -62 -66.5t-53 -66t-37 -74.5t-14 -91q0 -109 58 -166.5t167 -57.5q43 0 84 12.5t72 38t50 63.5t19 90h185q-1 -85 -33 -152.5t-86.5 -115t-129 -72.5t-161.5 -25q-98 0 -174 25.5t-128.5 74.5t-80 119.5
t-27.5 160.5q0 68 21.5 128t56 113.5t78.5 102t89 92.5q54 51 72 112.5t18 136.5h185zM596 997q0 -45 -27.5 -76t-81.5 -31t-82 31t-28 76q0 44 28 74t82 30t81.5 -30t27.5 -74z" />
    <glyph glyph-name="uni02BC" unicode="&#x2bc;" horiz-adv-x="409" 
d="M327 1408q0 -46 -11.5 -95.5t-34 -97.5t-54.5 -91.5t-74 -77.5l-105 72q47 66 71.5 135.5t24.5 151.5v131h183v-128z" />
    <glyph glyph-name="circumflex" unicode="&#x2c6;" horiz-adv-x="964" 
d="M774 1262v-10h-153l-150 170l-149 -170h-153v12l246 272h112z" />
    <glyph glyph-name="caron" unicode="&#x2c7;" horiz-adv-x="909" 
d="M448 1365l150 170h160v-10l-254 -274h-113l-251 274v10h157z" />
    <glyph glyph-name="breve" unicode="&#x2d8;" horiz-adv-x="874" 
d="M728 1495q0 -59 -20.5 -108t-59.5 -84.5t-94.5 -55.5t-124.5 -20t-124.5 20t-94.5 55.5t-60 84.5t-21 108h151q0 -30 8 -57t25.5 -47.5t46 -32.5t69.5 -12q40 0 68.5 12t46.5 32.5t26 47.5t8 57h150z" />
    <glyph glyph-name="dotaccent" unicode="&#x2d9;" horiz-adv-x="497" 
d="M141 1367q0 45 27.5 76t81.5 31t82 -31t28 -76t-28 -75t-82 -30t-81.5 30t-27.5 75z" />
    <glyph glyph-name="ring" unicode="&#x2da;" horiz-adv-x="685" 
d="M121 1408q0 43 16.5 81t45.5 66.5t68 44.5t85 16q45 0 84.5 -16t68.5 -44.5t45.5 -66.5t16.5 -81q0 -44 -16.5 -81t-45.5 -64.5t-68.5 -43t-84.5 -15.5q-46 0 -85 15.5t-68 43t-45.5 64.5t-16.5 81zM220 1408q0 -22 8.5 -43t24 -37t36.5 -25.5t47 -9.5q25 0 46.5 9.5
t37 25t24 36.5t8.5 44q0 24 -8.5 45t-24 37.5t-37 26t-46.5 9.5q-26 0 -47 -9.5t-36.5 -26t-24 -37.5t-8.5 -45z" />
    <glyph glyph-name="ogonek" unicode="&#x2db;" horiz-adv-x="554" 
d="M382 0q-32 -24 -63 -49t-55 -53t-38.5 -57.5t-14.5 -62.5t17 -52.5t61 -19.5q33 0 58.5 9t41.5 17l13 -121q-24 -15 -62 -29.5t-98 -14.5q-41 0 -76 12t-60.5 36t-40.5 59.5t-15 82.5q0 40 14.5 80t46 78.5t80 74t116.5 66.5z" />
    <glyph glyph-name="tilde" unicode="&#x2dc;" horiz-adv-x="966" 
d="M830 1500q0 -55 -16.5 -100t-46 -76.5t-68.5 -48.5t-84 -17q-51 0 -84 15t-60 32.5t-55 32.5t-70 15q-21 0 -39 -8.5t-31.5 -23.5t-21 -35.5t-7.5 -44.5l-124 7q0 55 16.5 100.5t45 78t68 50.5t84.5 18q43 0 75.5 -15t62 -33t60.5 -33t71 -15q21 0 39 8.5t31.5 24
t21.5 36t8 44.5z" />
    <glyph glyph-name="hungarumlaut" unicode="&#x2dd;" horiz-adv-x="764" 
d="M605 1535h207l-269 -303h-169zM265 1535h197l-218 -303h-150z" />
    <glyph glyph-name="uni02F3" unicode="&#x2f3;" horiz-adv-x="602" 
d="M126 -242q0 36 14 67t37.5 53t55 34.5t67.5 12.5q35 0 65.5 -12.5t53.5 -34.5t36.5 -53t13.5 -67q0 -37 -13.5 -67t-36.5 -51.5t-53.5 -33t-65.5 -11.5q-36 0 -67.5 11.5t-55 33t-37.5 51.5t-14 67zM213 -242q0 -17 7 -32.5t19 -26.5t27.5 -17.5t33.5 -6.5q35 0 59 24
t24 59q0 36 -24 61t-59 25q-18 0 -33.5 -6.5t-27.5 -18.5t-19 -27.5t-7 -33.5z" />
    <glyph glyph-name="gravecomb" unicode="&#x300;" 
d="M-458 1240h-126l-130 295h176z" />
    <glyph glyph-name="acutecomb" unicode="&#x301;" 
d="M-523 1536h172l-167 -293h-116z" />
    <glyph glyph-name="tildecomb" unicode="&#x303;" 
d="M-178 1500q0 -55 -16.5 -100t-46 -76.5t-68.5 -48.5t-84 -17q-51 0 -84 15t-60 32.5t-55 32.5t-70 15q-21 0 -39 -8.5t-31.5 -23.5t-21 -35.5t-7.5 -44.5l-124 7q0 55 16.5 100.5t45 78t68 50.5t84.5 18q43 0 75.5 -15t62 -33t60.5 -33t71 -15q21 0 39 8.5t31.5 24
t21.5 36t8 44.5z" />
    <glyph glyph-name="hook" unicode="&#x309;" 
d="M-652 1241l-1 153q75 5 110 20t35 54q0 21 -13 36t-35.5 24t-53 13.5t-64.5 4.5l7 106q149 0 226 -51.5t77 -136.5q0 -38 -13.5 -65t-35 -45t-49.5 -28t-57 -14l-1 -71h-132z" />
    <glyph glyph-name="uni030F" unicode="&#x30f;" 
d="M-510 1252h-169l-306 266h225zM-249 1252h-150l-246 266h206z" />
    <glyph glyph-name="dotbelow" unicode="&#x323;" horiz-adv-x="495" 
d="M-712 -245q0 45 27.5 76t81.5 31t82 -31t28 -76t-28 -75t-82 -30t-81.5 30t-27.5 75z" />
    <glyph glyph-name="tonos" unicode="&#x384;" horiz-adv-x="525" 
d="M237 1599h174l-116 -337h-112z" />
    <glyph glyph-name="dieresistonos" unicode="&#x385;" horiz-adv-x="1035" 
d="M481 1672h188l-101 -264h-135zM113 1371q0 45 27.5 75.5t81.5 30.5t82 -30.5t28 -75.5t-28 -75t-82 -30t-81.5 30t-27.5 75zM680 1369q0 45 27.5 76t81.5 31t82 -31t28 -76t-28 -75t-82 -30t-81.5 30t-27.5 75z" />
    <glyph glyph-name="Delta" unicode="&#x394;" horiz-adv-x="1444" 
d="M646 1456h170l579 -1456h-1364zM293 157h844l-409 1064z" />
    <glyph glyph-name="Omega" unicode="&#x3a9;" horiz-adv-x="1362" 
d="M737 162q67 13 121.5 55t93 112.5t59.5 169.5t21 227v115q0 117 -25 206t-72.5 149t-114.5 91t-151 31q-83 0 -149.5 -31t-113.5 -91t-72.5 -149t-25.5 -206v-115q0 -128 22 -227.5t61.5 -170t95 -112t123.5 -54.5v-162h-492v157h221q-52 50 -94 114.5t-71 138t-45 154
t-16 162.5v113q0 142 40.5 259t113.5 201t175.5 130.5t226.5 46.5t227 -46.5t176.5 -130.5t114 -201t40.5 -259v-113q0 -82 -16 -162.5t-45 -154t-71 -138t-94 -114.5h220v-157h-484v162z" />
    <glyph glyph-name="afii57388" unicode="&#x60c;" horiz-adv-x="739" 
d="M236 290q49 245 246 394l48 -30q-158 -142 -174 -365q133 2 167 -64q19 -39 18 -77q-2 -139 -145 -139q-217 -1 -160 281z" />
    <glyph glyph-name="uni060D" unicode="&#x60d;" horiz-adv-x="828" 
d="M610 1461l147 -44l-558 -1628l-147 44z" />
    <glyph glyph-name="uni0615" unicode="&#x615;" 
d="M913 1920q0 75 -76 75q-107 0 -296 -205h137q104 0 168 35q67 35 67 95zM991 1929q0 -215 -323 -215h-313v76h108v532l77 -1l-1 -427q164 186 302 186q150 0 150 -151z" />
    <glyph glyph-name="uni061B" unicode="&#x61b;" horiz-adv-x="739" 
d="M262 140q0 56 39.5 96t95.5 40t95.5 -40t39.5 -95.5t-39.5 -95.5t-95.5 -40q-49 0 -85 31q-27 22 -40 53q-10 23 -10 51zM236 730q49 245 246 394l48 -30q-158 -142 -174 -365q133 2 167 -64q19 -39 18 -77q-2 -139 -145 -139q-217 -1 -160 281z" />
    <glyph glyph-name="uni061F" unicode="&#x61f;" horiz-adv-x="974" 
d="M418 140q0 56 39.5 96t95.5 40t95.5 -40t39.5 -95.5t-39.5 -95.5t-95.5 -40q-49 0 -85 31q-27 22 -40 53q-10 23 -10 51zM452 446v8q0 88 -172 223q-179 140 -175 358q3 148 87 244q121 136 317 136q367 -2 367 -389v-10h-160v9q0 196 -198 196q-118 0 -174 -67
q-44 -53 -44 -135q-1 -129 140 -256q215 -196 215 -306v-11h-203z" />
    <glyph glyph-name="uni0621" unicode="&#x621;" horiz-adv-x="868" 
d="M118 12v178q111 72 199 98q-179 93 -179 253q1 135 72 217q102 118 265 118q168 0 258 -90l-57 -138q-79 57 -189 57q-87 -1 -137 -50q-46 -44 -46 -114q0 -91 172 -170l253 57l28 -172q-252 -30 -639 -244z" />
    <glyph glyph-name="uni0627" unicode="&#x627;" horiz-adv-x="477" 
d="M151 1408h173v-1407h-173v1407z" />
    <glyph glyph-name="uni0628" unicode="&#x628;" horiz-adv-x="1807" 
d="M861 0q-761 0 -761 486q0 135 55 257l157 -69q-33 -83 -33 -159q0 -331 563 -331q501 0 632 96q64 47 64 165q0 90 -36 246l163 41q50 -151 50 -272q0 -237 -138 -334q-181 -126 -713 -126h-3zM792.202 -316.796l145.513 145.513l146.583 -146.582l-145.513 -145.513z
" />
    <glyph glyph-name="uni0629" unicode="&#x629;" horiz-adv-x="942" 
d="M462 644q-190 -166 -190 -293q0 -167 203 -167q206 0 205 168q0 118 -218 292zM384 947q467 -342 467 -601q0 -189 -165 -291q-79 -50 -210 -51q-121 0 -207 43q-168 84 -168 299q0 207 228 429l-45 39zM482.165 1260.2l145.513 145.513l146.583 -146.582
l-145.513 -145.513zM156.901 1260.2l145.513 145.513l146.583 -146.582l-145.513 -145.513z" />
    <glyph glyph-name="uni062A" unicode="&#x62a;" horiz-adv-x="1807" 
d="M861 0q-761 0 -761 486q0 135 55 257l157 -69q-33 -83 -33 -159q0 -331 563 -331q501 0 632 96q64 47 64 165q0 90 -36 246l163 41q50 -151 50 -272q0 -237 -138 -334q-181 -126 -713 -126h-3zM927.165 942.204l145.513 145.513l146.583 -146.582l-145.513 -145.513z
M601.901 942.204l145.513 145.513l146.583 -146.582l-145.513 -145.513z" />
    <glyph glyph-name="uni062B" unicode="&#x62b;" horiz-adv-x="1807" 
d="M861 0q-761 0 -761 486q0 135 55 257l157 -69q-33 -83 -33 -159q0 -331 563 -331q501 0 632 96q64 47 64 165q0 90 -36 246l163 41q50 -151 50 -272q0 -237 -138 -334q-181 -126 -713 -126h-3zM765.604 1148.43l142.303 142.303l143.373 -143.372l-142.303 -142.303z
M930.375 879.875l142.303 142.304l143.373 -143.373l-142.303 -142.303zM606.182 879.875l141.232 142.304l143.373 -143.373l-142.303 -142.303z" />
    <glyph glyph-name="uni062C" unicode="&#x62c;" horiz-adv-x="1366" 
d="M125 -145q0 584 716 743l10 2q-26 10 -114 45q-195 79 -267 79q-113 0 -186 -94l-28 -36l-154 76l16 28q126 207 353 208h1q126 0 303 -86q312 -152 483 -159l-13 -174q-176 -11 -292 -37q-658 -153 -658 -579q0 -369 531 -369q217 0 417 96l36 -174q-199 -97 -467 -97
q-391 0 -558 181q-129 139 -129 347zM659.202 -64.7959l145.513 145.513l146.583 -146.582l-145.513 -145.513z" />
    <glyph glyph-name="uni062D" unicode="&#x62d;" horiz-adv-x="1386" 
d="M125 -145q0 584 716 743l10 2q-26 10 -114 45q-195 79 -267 79q-113 0 -186 -94l-28 -36l-154 76l16 28q126 207 353 208h1q126 0 303 -86q312 -152 483 -159l-13 -174q-176 -11 -292 -37q-658 -153 -658 -579q0 -369 531 -369q217 0 417 96l36 -174q-199 -97 -467 -97
q-391 0 -558 181q-129 139 -129 347z" />
    <glyph glyph-name="uni062E" unicode="&#x62e;" horiz-adv-x="1386" 
d="M434.202 1238.2l145.513 145.513l146.583 -146.582l-145.513 -145.513zM125 -145q0 584 716 743l10 2q-26 10 -114 45q-195 79 -267 79q-113 0 -186 -94l-28 -36l-154 76l16 28q126 207 353 208h1q126 0 303 -86q312 -152 483 -159l-13 -174q-176 -11 -292 -37
q-658 -153 -658 -579q0 -369 531 -369q217 0 417 96l36 -174q-199 -97 -467 -97q-391 0 -558 181q-129 139 -129 347z" />
    <glyph glyph-name="uni062F" unicode="&#x62f;" horiz-adv-x="974" 
d="M101 211q126 -26 221 -26q370 0 370 181q0 189 -415 450l100 152q495 -295 495 -599q0 -366 -537 -367q-127 0 -234 24v185z" />
    <glyph glyph-name="uni0630" unicode="&#x630;" horiz-adv-x="974" 
d="M101 211q126 -26 221 -26q370 0 370 181q0 189 -415 450l100 152q495 -295 495 -599q0 -366 -537 -367q-127 0 -234 24v185zM211.202 1286.2l145.513 145.513l146.583 -146.582l-145.513 -145.513z" />
    <glyph glyph-name="uni0631" unicode="&#x631;" horiz-adv-x="775" 
d="M601 532q83 -202 83 -375q1 -545 -635 -665l-62 158q524 98 526 502q1 136 -78 320z" />
    <glyph glyph-name="uni0632" unicode="&#x632;" horiz-adv-x="775" 
d="M601 532q83 -202 83 -375q1 -545 -635 -665l-62 158q524 98 526 502q1 136 -78 320zM304.773 895.882l150.369 150.369l151.475 -151.475l-150.369 -150.368z" />
    <glyph glyph-name="uni0633" unicode="&#x633;" horiz-adv-x="2470" 
d="M1350 56q-1 -159 -56 -273q-149 -303 -567 -303q-626 0 -625 581q0 209 91 429l159 -65q-74 -190 -74 -362q0 -406 456 -406q445 0 447 445q0 184 -91 370l173 60l60 -185q52 -162 222 -162q178 0 177 184q0 57 -3 101l-5 84l165 20l16 -231q10 -156 153 -155.5
t142 211.5q0 103 -44 255l171 46q50 -157 49 -300q0 -227 -121 -333q-76 -66 -190 -66q-185 0 -244 140q-101 -141 -268 -141q-125 0 -193 56z" />
    <glyph glyph-name="uni0634" unicode="&#x634;" horiz-adv-x="2470" 
d="M1620.6 1212.43l142.303 142.303l143.373 -143.372l-142.303 -142.303zM1785.38 943.875l142.303 142.304l143.373 -143.373l-142.303 -142.303zM1461.18 943.875l141.232 142.304l143.373 -143.373l-142.303 -142.303zM1350 56q-1 -159 -56 -273q-149 -303 -567 -303
q-626 0 -625 581q0 209 91 429l159 -65q-74 -190 -74 -362q0 -406 456 -406q445 0 447 445q0 184 -91 370l173 60l60 -185q52 -162 222 -162q178 0 177 184q0 57 -3 101l-5 84l165 20l16 -231q10 -156 153 -155.5t142 211.5q0 103 -44 255l171 46q50 -157 49 -300
q0 -227 -121 -333q-76 -66 -190 -66q-185 0 -244 140q-101 -141 -268 -141q-125 0 -193 56z" />
    <glyph glyph-name="uni0635" unicode="&#x635;" horiz-adv-x="2587" 
d="M1323 347q41 -128 101 -134q340 579 685 578q146 0 245 -82q131 -109 131 -285q-2 -424 -722 -424h-51q-249 0 -362 56q-1 -159 -56 -273q-149 -303 -567 -303q-626 0 -625 581q0 209 91 429l159 -65q-74 -190 -74 -362q0 -406 456 -406q445 0 447 445q0 184 -91 370
l173 60zM1759 185q543 0 544 230q0 102 -78 156q-48 33 -113 34q-228 1 -497 -421z" />
    <glyph glyph-name="uni0636" unicode="&#x636;" horiz-adv-x="2587" 
d="M1926.2 1183.2l145.513 145.513l146.583 -146.582l-145.513 -145.513zM1323 347q41 -128 101 -134q340 579 685 578q146 0 245 -82q131 -109 131 -285q-2 -424 -722 -424h-51q-249 0 -362 56q-1 -159 -56 -273q-149 -303 -567 -303q-626 0 -625 581q0 209 91 429l159 -65
q-74 -190 -74 -362q0 -406 456 -406q445 0 447 445q0 184 -91 370l173 60zM1759 185q543 0 544 230q0 102 -78 156q-48 33 -113 34q-228 1 -497 -421z" />
    <glyph glyph-name="uni0637" unicode="&#x637;" horiz-adv-x="1480" 
d="M1380 424q-3 -424 -722 -424h-557v184h221h2l72 115v1110h173v-865q202 252 435 247q149 -2 245 -82q131 -109 131 -285zM1007 605q-231 0 -497 -420h144q542 0 544 230q0 102 -78 156q-48 33 -113 34z" />
    <glyph glyph-name="uni0638" unicode="&#x638;" horiz-adv-x="1480" 
d="M1380 424q-3 -424 -722 -424h-557v184h221h2l72 115v1110h173v-865q202 252 435 247q149 -2 245 -82q131 -109 131 -285zM1007 605q-231 0 -497 -420h144q542 0 544 230q0 102 -78 156q-48 33 -113 34zM834.202 1183.2l145.513 145.513l146.583 -146.582
l-145.513 -145.513z" />
    <glyph glyph-name="uni0639" unicode="&#x639;" horiz-adv-x="1346" 
d="M635 463q179 31 306 32q94 0 183 -10l-23 -175q-86 3 -116 2q-710 -20 -710 -457q0 -353 520 -353q208 0 408 95l36 -174q-198 -97 -456 -97q-376 0 -549 184q-129 133 -129 338q0 392 358 550q-121 140 -121 297q0 69 27 139q27 66 81 123q101 107 284 107
q153 0 332 -122l-68 -150q-149 89 -254 89q-129 0 -188 -98q-30 -49 -30 -101q0 -45 24 -93q22 -45 85 -126z" />
    <glyph glyph-name="uni063A" unicode="&#x63a;" horiz-adv-x="1346" 
d="M635 463q179 31 306 32q94 0 183 -10l-23 -175q-86 3 -116 2q-710 -20 -710 -457q0 -353 520 -353q208 0 408 95l36 -174q-198 -97 -456 -97q-376 0 -549 184q-129 133 -129 338q0 392 358 550q-121 140 -121 297q0 69 27 139q27 66 81 123q101 107 284 107
q153 0 332 -122l-68 -150q-149 89 -254 89q-129 0 -188 -98q-30 -49 -30 -101q0 -45 24 -93q22 -45 85 -126zM559.202 1367.2l145.513 145.513l146.583 -146.582l-145.513 -145.513z" />
    <glyph glyph-name="afii57440" unicode="&#x640;" horiz-adv-x="286" 
d="M-7 0q-58 0 -58 88v19q0 77 58 77h302q20 0 20 -77v-19q0 -88 -20 -88h-302z" />
    <glyph glyph-name="uni0641" unicode="&#x641;" horiz-adv-x="1821" 
d="M1197.2 1359.2l145.513 145.513l146.583 -146.582l-145.513 -145.513zM1718 473q-2 -283 -136 -383q-120 -90 -422 -90h-330q-731 0 -731 486q0 135 55 257l157 -69q-33 -85 -33 -163q0 -327 538 -327h365q378 0 380 197q0 9 -1 18q-92 -28 -199 -28q-323 0 -328 271
q-1 43 7 83q30 158 114 244q83 86 207 86q84 0 147 -41q169 -109 202 -418q7 -65 8 -123zM1197 669q0 -125 177 -124q84 0 171 26q-15 116 -52 196q-49 108 -138 108q-104 0 -146 -134q-12 -38 -12 -72z" />
    <glyph glyph-name="uni0642" unicode="&#x642;" horiz-adv-x="1511" 
d="M747 -460q-646 0 -645 581q0 209 91 429l159 -65q-74 -190 -74 -362q0 -407 476 -406q456 1 488 386l1 5q-92 -28 -199 -29q-325 -2 -329 272q0 43 8 83q33 161 113 244q83 85 208 85q84 1 147 -40q171 -113 208 -428q17 -148 -2 -275q-74 -480 -650 -480zM879 378
q1 -126 178 -125q84 1 170 26q-14 117 -51 196q-49 109 -139 109q-104 0 -145 -135q-12 -37 -13 -71zM1042.17 1072.2l145.513 145.513l146.583 -146.582l-145.513 -145.513zM716.901 1072.2l145.513 145.513l146.583 -146.582l-145.513 -145.513z" />
    <glyph glyph-name="uni0643" unicode="&#x643;" horiz-adv-x="1891" 
d="M842 184q710 0 710 288v933h178v-931q0 -474 -868 -474h-1q-761 0 -761 486q0 135 55 257l157 -69q-33 -83 -33 -159q2 -331 563 -331zM686 662q94 -10 163 -11q106 0 159.5 22t54.5 69q0 43 -31 69q-30 26 -91 34q-214 33 -210 213q5 207 393 236v-129
q-260 -24 -260 -115q0 -74 139 -95q193 -30 192 -209q0 -121 -119 -186q-75 -41 -210 -41q-80 0 -180 15v128z" />
    <glyph glyph-name="uni0644" unicode="&#x644;" horiz-adv-x="1441" 
d="M1113 100l3 1308h172l-1 -1109q0 -140 -9 -271q-42 -548 -577 -548q-600 0 -598 561q0 202 83 405l159 -65q-67 -170 -67 -343q0 -381 424 -381q409 0 411 443z" />
    <glyph glyph-name="uni0645" unicode="&#x645;" horiz-adv-x="1242" 
d="M842 158q130 -1 130 139q-1 58 -22 110q-43 107 -158 109q-136 2 -211 -207q173 -151 261 -151zM1143 309q0 -142 -69 -235q-70 -97 -222 -97q-102 0 -245 88q-48 29 -103 57q-33 17 -76 16q-153 -2 -152 -476q0 -196 14 -357h-180q-12 190 -11 361q3 343 79 493
q78 153 215 174q147 371 396 372q162 1 258 -116t96 -280z" />
    <glyph glyph-name="uni0646" unicode="&#x646;" horiz-adv-x="1455" 
d="M1294 -147q-149 -303 -567 -303q-626 0 -625 581q0 209 91 429l159 -65q-74 -190 -74 -362q0 -406 456 -406q445 0 447 445q0 184 -91 370l173 60q88 -240 88 -470q0 -162 -57 -279zM570.202 687.204l145.513 145.513l146.583 -146.582l-145.513 -145.513z" />
    <glyph glyph-name="uni0647" unicode="&#x647;" horiz-adv-x="942" 
d="M462 644q-190 -166 -190 -293q0 -167 203 -167q206 0 205 168q0 118 -218 292zM384 947q467 -342 467 -601q0 -189 -165 -291q-79 -50 -210 -51q-121 0 -207 43q-168 84 -168 299q0 207 228 429l-45 39z" />
    <glyph glyph-name="uni0648" unicode="&#x648;" horiz-adv-x="860" 
d="M102 -350q433 80 508 363q-119 -15 -152 -15q-365 -2 -365 300q0 121 52 229q94 197 284 197q206 0 294 -229q58 -149 58 -327q0 -560 -617 -676zM611 202q-22 333 -194 333q-96 0 -137 -120q-18 -54 -18 -102q0 -138 197 -137q73 1 152 26z" />
    <glyph glyph-name="uni0649" unicode="&#x649;" horiz-adv-x="1504" 
d="M278 84q0 -406 463 -408q178 0 318 65q73 34 128 90q55 57 55 129q0 57 -78 57l-114 1q-249 1 -249 199q0 189 120 320q155 169 436 169h21v-193h-22q-160 0 -265 -73q-107 -75 -109 -184q0 -30 16 -43q17 -14 54 -14h119q237 1 237 -199q0 -290 -288 -422
q-169 -77 -384 -77q-633 0 -633 580q0 214 109 472l159 -65q-93 -223 -93 -404z" />
    <glyph glyph-name="uni064A" unicode="&#x64a;" horiz-adv-x="1504" 
d="M278 84q0 -406 463 -408q178 0 318 65q73 34 128 90q55 57 55 129q0 57 -78 57l-114 1q-249 1 -249 199q0 189 120 320q155 169 436 169h21v-193h-22q-160 0 -265 -73q-107 -75 -109 -184q0 -30 16 -43q17 -14 54 -14h119q237 1 237 -199q0 -290 -288 -422
q-169 -77 -384 -77q-633 0 -633 580q0 214 109 472l159 -65q-93 -223 -93 -404zM753.165 -794.796l145.513 145.513l146.583 -146.582l-145.513 -145.513zM427.901 -794.796l145.513 145.513l146.583 -146.582l-145.513 -145.513z" />
    <glyph glyph-name="uni064B" unicode="&#x64b;" 
d="M327 1076v104l455 186v-103zM327 1288v104l455 186v-103z" />
    <glyph glyph-name="uni064C" unicode="&#x64c;" 
d="M588 1717q-20 -23 -20 -53q0 -57 66 -84q23 -10 74 -25q27 46 27 94q0 98 -81 97q-42 0 -66 -29zM319 1514q4 -226 134 -225q71 1 148 75q44 44 84 122l-30 6q-100 22 -137 70q-32 43 -32 93q0 51 17 85q44 85 147 85q72 1 115 -41q48 -46 48 -134q1 -40 -21 -109l30 -1
q29 -2 58 -2v-79q-40 1 -50 2l-76 7q-46 -111 -134 -187q-80 -70 -166 -70q-186 -1 -191 303h56z" />
    <glyph glyph-name="uni064D" unicode="&#x64d;" 
d="M332 -446v104l456 186v-104zM332 -234v104l456 186v-104z" />
    <glyph glyph-name="uni064E" unicode="&#x64e;" 
d="M296 1349v104l456 186v-104z" />
    <glyph glyph-name="uni064F" unicode="&#x64f;" 
d="M813 1464q-61 0 -99 5l-31 4q-126 -178 -364 -190v78q186 8 277 137q-43 8 -89 33q-87 49 -87 135q1 64 36 107q46 55 127 55q61 0 106 -36q32 -26 47 -65q10 -28 10 -62q-1 -58 -26 -119l20 -2q39 -3 73 -2v-78zM640 1560l6 14q21 48 21 90q0 41 -25 61q-25 22 -55 22
q-45 1 -70 -31q-17 -23 -17 -54q0 -47 66 -77q23 -11 74 -25z" />
    <glyph glyph-name="uni0650" unicode="&#x650;" 
d="M343 -346v104l455 186v-103z" />
    <glyph glyph-name="uni0651" unicode="&#x651;" 
d="M608 1768q2 -41 3 -82q-1 -92 66 -92q70 1 71 101q0 38 -17 118l88 14q18 -62 18 -122q0 -202 -147 -203q-64 -1 -106 53q-30 -117 -152 -117q-135 0 -138 168q-1 60 13 110l78 -13q-10 -47 -9 -83q0 -84 68 -84q82 -1 86 113q2 51 1 119h77z" />
    <glyph glyph-name="uni0652" unicode="&#x652;" 
d="M398 1462q0 82 57 138.5t138.5 56.5t138.5 -56.5t57 -138.5t-57 -139t-138.5 -57t-138.5 57t-57 139zM485 1461q-1 -47 32 -79q32 -33 79 -33t79 33q32 32 33 79q-1 47 -33 79t-79 32t-79 -32q-33 -32 -32 -79z" />
    <glyph glyph-name="uni0653" unicode="&#x653;" 
d="M400 1637q-111 15 -203 -94l-101 106q118 170 288 143l149 -24q97 -16 219 46l66 -137q-129 -80 -277 -60z" />
    <glyph glyph-name="uni0654" unicode="&#x654;" 
d="M442 1826q-74 57 -74 161q0 88 59 150q69 73 177 73q75 0 141 -43l1 -131q-63 41 -128 41q-63 0 -97 -34q-28 -29 -28 -69q2 -60 95 -94q13 -5 24 -3l140 28v-126l-407 -98v123z" />
    <glyph glyph-name="uni0655" unicode="&#x655;" 
d="M442 -326q-74 57 -74 161q0 88 59 150q69 73 177 73q75 0 141 -43l1 -131q-63 41 -128 41q-63 0 -97 -34q-28 -29 -28 -69q2 -60 95 -94q13 -5 24 -3l140 28v-126l-407 -98v123z" />
    <glyph glyph-name="uni0657" unicode="&#x657;" 
d="M265 1805q59 -2 130 -9l1 1q149 213 389 236v-78q-185 -30 -299 -177q62 -18 105 -50q67 -50 67 -129q0 -70 -45 -116q-43 -45 -112 -45q-74 0 -127 52q-42 42 -42 113q0 44 23 119q-40 4 -90 4v79zM501 1516q41 1 61 28q15 22 15 53q0 59 -78 92q-31 13 -62 20
q-27 -64 -27 -104q0 -21 7 -37q10 -23 35 -37.5t49 -14.5z" />
    <glyph glyph-name="uni065A" unicode="&#x65a;" horiz-adv-x="1135" 
d="M502 1444l-193 324h104l160 -240l161 240h104l-194 -324h-142z" />
    <glyph glyph-name="afii57392" unicode="&#x660;" horiz-adv-x="893" 
d="M309 543.5q0 -59.5 41 -100.5q21 -21 46.5 -31.5t56.5 -10.5q60 0 101 42q20 20 30.5 45.5t10.5 55t-10.5 54.5t-30.5 46q-41 41 -102 42q-30 -1 -55.5 -11.5t-46.5 -30.5q-41 -41 -41 -100.5zM224 767q23 24 48.5 41.5t53.5 28.5q56 24 121 24q43 0 82 -10.5t74.5 -31
t66.5 -52.5q46 -46 69.5 -102t23.5 -121q0 -130 -93 -223q-24 -23 -49.5 -40.5t-53 -29t-58 -17t-62.5 -5.5q-65 0 -121 23q-19 7 -36.5 17.5t-34 23.5t-31.5 28q-47 47 -70 102.5t-23 120.5t23 121t70 102z" />
    <glyph glyph-name="afii57393" unicode="&#x661;" horiz-adv-x="716" 
d="M310 1376q204 -448 204 -1087v-277h-179v280q0 641 -190 1026z" />
    <glyph glyph-name="afii57394" unicode="&#x662;" horiz-adv-x="1197" 
d="M411 1094q61 -172 274 -172q108 0 156 94q55 106 55 349l180 -1q-1 -75 -5 -140q-19 -256 -108 -368q-98 -122 -274 -121q-135 0 -209 47l1 -7q33 -251 33 -486v-277h-179v280q0 641 -190 1026l164 58z" />
    <glyph glyph-name="afii57395" unicode="&#x663;" horiz-adv-x="1492" 
d="M481 776q33 -249 33 -487v-277h-179v280q0 641 -190 1026l164 58l110 -314q43 -123 192 -124q159 -1 153 257l-2 117l158 5l4 -145q6 -240 157 -241q69 -1 97 60q19 44 23 96q8 110 9 161v133h177l-1 -130q0 -57 -7 -147q-29 -358 -292 -356q-150 1 -247 113l-3 3l-2 -3
q-93 -114 -212 -114q-98 0 -137 32l-6 5z" />
    <glyph glyph-name="afii57396" unicode="&#x664;" horiz-adv-x="1046" 
d="M139 299q-8 243 393 420q-311 63 -310 308q0 91 47 159q113 164 397 167q67 1 144 -9l-13 -182q-50 6 -93 6q-282 1 -283 -159q-1 -141 357 -170l2 -184q-465 -186 -454 -348q7 -126 388 -124l194 1l2 -184h-203q-557 2 -568 299z" />
    <glyph glyph-name="afii57397" unicode="&#x665;" horiz-adv-x="1166" 
d="M556 1026q-271 -289 -271 -538q0 -153 104 -233q84 -65 220 -65q130 0 211 96q62 73 61 209q0 284 -325 531zM352 1186l110 159q594 -379 595 -873q0 -276 -181 -388q-123 -76 -271 -76q-166 1 -297 72q-202 110 -199 391q3 345 298 673z" />
    <glyph glyph-name="afii57398" unicode="&#x666;" horiz-adv-x="1265" 
d="M934 12q-121 496 -133 1115q-169 -46 -337 -46q-198 -1 -383 82v211q198 -92 429 -92q222 0 456 94q11 -878 157 -1364h-189z" />
    <glyph glyph-name="afii57399" unicode="&#x667;" horiz-adv-x="1281" 
d="M1183 1290q-319 -639 -459 -1278h-167q-141 640 -459 1278l169 86q267 -574 373 -1049q107 476 374 1049z" />
    <glyph glyph-name="afii57400" unicode="&#x668;" horiz-adv-x="1281" 
d="M1183 77l-169 -85q-267 572 -374 1048q-106 -475 -373 -1048l-169 85q318 638 459 1279h167q140 -640 459 -1279z" />
    <glyph glyph-name="afii57401" unicode="&#x669;" horiz-adv-x="1139" 
d="M500 575q-388 0 -388 351q0 145 70 258q122 196 333 196q368 0 394 -499q22 -442 33 -869h-172l-14 631q-136 -68 -256 -68v0zM503 765q106 0 235 64l-2 23q-28 337 -212 337q-113 0 -178 -89q-59 -80 -59 -165q0 -170 216 -170z" />
    <glyph glyph-name="afii57381" unicode="&#x66a;" horiz-adv-x="1288" 
d="M750 345q0 70 50 119q49 49 118 50q36 0 65.5 -12.5t53.5 -37.5q25 -24 37.5 -54t12.5 -65q0 -70 -49.5 -119t-119 -49t-119.5 49q-49 49 -49 119zM201 1199q0 70 50 119q49 49 119 50q70 0 119 -50q49 -49 49 -119t-49 -119q-25 -24 -54 -36q-30 -13 -65 -13
q-70 0 -119 49q-50 49 -50 119zM873 1407l153 -79l-671 -1294l-153 84z" />
    <glyph glyph-name="uni066B" unicode="&#x66b;" horiz-adv-x="822" 
d="M533 818l131 -56l-464 -1071l-134 58z" />
    <glyph glyph-name="uni066C" unicode="&#x66c;" horiz-adv-x="588" 
d="M147 141q1 48 19 80q36 65 125 65q146 1 173 -128q14 -68 -12 -167q-59 -224 -263 -392l-72 33q195 176 207 368h-3h-7q-28 -1 -47 3q-122 25 -120 138z" />
    <glyph glyph-name="afii63167" unicode="&#x66d;" horiz-adv-x="1584" 
d="M233 1039h430h2l1 2l134 409l134 -409l1 -2h2h430l-347 -254l-2 -2l1 -2l133 -408l-350 253l-2 1l-2 -1l-350 -253l133 408l1 2l-2 2z" />
    <glyph glyph-name="uni066E" unicode="&#x66e;" horiz-adv-x="1807" 
d="M861 0q-761 0 -761 486q0 135 55 257l157 -69q-33 -83 -33 -159q0 -331 563 -331q501 0 632 96q64 47 64 165q0 90 -36 246l163 41q50 -151 50 -272q0 -237 -138 -334q-181 -126 -713 -126h-3z" />
    <glyph glyph-name="uni066F" unicode="&#x66f;" horiz-adv-x="1511" 
d="M747 -460q-646 0 -645 581q0 209 91 429l159 -65q-74 -190 -74 -362q0 -407 476 -406q456 1 488 386l1 5q-92 -28 -199 -29q-325 -2 -329 272q0 43 8 83q33 161 113 244q83 85 208 85q84 1 147 -40q171 -113 208 -428q17 -148 -2 -275q-74 -480 -650 -480zM879 378
q1 -126 178 -125q84 1 170 26q-14 117 -51 196q-49 109 -139 109q-104 0 -145 -135q-12 -37 -13 -71z" />
    <glyph glyph-name="uni0670" unicode="&#x670;" 
d="M593 1568v402h88v-402h-88z" />
    <glyph glyph-name="uni0674" unicode="&#x674;" horiz-adv-x="551" 
d="M175 1970q-74 57 -74 161q0 88 59 150q69 73 177 73q75 0 141 -43l1 -131q-63 41 -128 41q-63 0 -97 -34q-28 -29 -28 -69q2 -60 95 -94q13 -5 24 -3l140 28v-126l-407 -98v123z" />
    <glyph glyph-name="afii57506" unicode="&#x67e;" horiz-adv-x="1807" 
d="M861 0q-761 0 -761 486q0 135 55 257l157 -69q-33 -83 -33 -159q0 -331 563 -331q501 0 632 96q64 47 64 165q0 90 -36 246l163 41q50 -151 50 -272q0 -237 -138 -334q-181 -126 -713 -126h-3zM785.604 -569.373l143.373 142.303l142.303 -142.303l-143.373 -142.303z
M950.375 -300.816l143.373 142.303l142.303 -141.232l-143.373 -143.373zM626.182 -300.816l142.303 142.303l142.303 -141.232l-143.373 -143.373z" />
    <glyph glyph-name="afii57507" unicode="&#x686;" horiz-adv-x="1366" 
d="M125 -145q0 584 716 743l10 2q-26 10 -114 45q-195 79 -267 79q-113 0 -186 -94l-28 -36l-154 76l16 28q126 207 353 208h1q126 0 303 -86q312 -152 483 -159l-13 -174q-176 -11 -292 -37q-658 -153 -658 -579q0 -369 531 -369q217 0 417 96l36 -174q-199 -97 -467 -97
q-391 0 -558 181q-129 139 -129 347zM680.604 -215.373l143.373 142.303l142.303 -142.303l-143.373 -142.303zM845.375 53.1836l143.373 142.303l142.303 -141.232l-143.373 -143.373zM521.182 53.1836l142.303 142.303l142.303 -141.232l-143.373 -143.373z" />
    <glyph glyph-name="afii57508" unicode="&#x698;" horiz-adv-x="840" 
d="M601 532q83 -202 83 -375q1 -545 -635 -665l-62 158q524 98 526 502q1 136 -78 320zM310.604 1125.43l142.303 142.303l143.373 -143.372l-142.303 -142.303zM475.375 856.875l142.303 142.304l143.373 -143.373l-142.303 -142.303zM151.182 856.875l141.232 142.304
l143.373 -143.373l-142.303 -142.303z" />
    <glyph glyph-name="uni06A1" unicode="&#x6a1;" horiz-adv-x="1821" 
d="M1718 473q-2 -283 -136 -383q-120 -90 -422 -90h-330q-731 0 -731 486q0 135 55 257l157 -69q-33 -85 -33 -163q0 -327 538 -327h365q378 0 380 197q0 9 -1 18q-92 -28 -199 -28q-323 0 -328 271q-1 43 7 83q30 158 114 244q83 86 207 86q84 0 147 -41q169 -109 202 -418
q7 -65 8 -123zM1197 669q0 -125 177 -124q84 0 171 26q-15 116 -52 196q-49 108 -138 108q-104 0 -146 -134q-12 -38 -12 -72z" />
    <glyph glyph-name="uni06A9" unicode="&#x6a9;" horiz-adv-x="1848" 
d="M1499 660q130 -141 128 -310q-7 -350 -613 -350h-181q-734 0 -734 486q0 135 55 257l157 -69q-33 -85 -33 -163q2 -327 555 -327h180q435 0 434 191q0 98 -103 195q-154 143 -274 237q-114 89 -114 187q0 129 141 183l693 263v-181l-673 -250q265 -223 382 -349z" />
    <glyph glyph-name="uni06AF" unicode="&#x6af;" horiz-adv-x="1848" 
d="M1499 660q130 -141 128 -310q-7 -350 -613 -350h-181q-734 0 -734 486q0 135 55 257l157 -69q-33 -85 -33 -163q2 -327 555 -327h180q435 0 434 191q0 98 -103 195q-154 143 -274 237q-114 89 -114 187q0 129 141 183l693 263v-181l-673 -250q265 -223 382 -349z
M1783.55 1582.96l-782.131 -301.725v128.394l782.131 301.725v-128.394z" />
    <glyph glyph-name="afii57514" unicode="&#x6ba;" horiz-adv-x="1455" 
d="M1294 -147q-149 -303 -567 -303q-626 0 -625 581q0 209 91 429l159 -65q-74 -190 -74 -362q0 -406 456 -406q445 0 447 445q0 184 -91 370l173 60q88 -240 88 -470q0 -162 -57 -279z" />
    <glyph glyph-name="uni06CA" unicode="&#x6ca;" horiz-adv-x="860" 
d="M446 1036l136 136l137 -137l-136 -136zM142 1036l136 136l137 -137l-136 -136zM102 -350q433 80 508 363q-119 -15 -152 -15q-365 -2 -365 300q0 121 52 229q94 197 284 197q206 0 294 -229q58 -149 58 -327q0 -560 -617 -676zM611 202q-22 333 -194 333q-96 0 -137 -120
q-18 -54 -18 -102q0 -138 197 -137q73 1 152 26z" />
    <glyph glyph-name="uni06CC" unicode="&#x6cc;" horiz-adv-x="1504" 
d="M278 84q0 -406 463 -408q178 0 318 65q73 34 128 90q55 57 55 129q0 57 -78 57l-114 1q-249 1 -249 199q0 189 120 320q155 169 436 169h21v-193h-22q-160 0 -265 -73q-107 -75 -109 -184q0 -30 16 -43q17 -14 54 -14h119q237 1 237 -199q0 -290 -288 -422
q-169 -77 -384 -77q-633 0 -633 580q0 214 109 472l159 -65q-93 -223 -93 -404z" />
    <glyph glyph-name="afii57534" unicode="&#x6d5;" horiz-adv-x="942" 
d="M462 644q-190 -166 -190 -293q0 -167 203 -167q206 0 205 168q0 118 -218 292zM384 947q467 -342 467 -601q0 -189 -165 -291q-79 -50 -210 -51q-121 0 -207 43q-168 84 -168 299q0 207 228 429l-45 39z" />
    <glyph glyph-name="uni06F0" unicode="&#x6f0;" horiz-adv-x="893" 
d="M309 543.5q0 -59.5 41 -100.5q21 -21 46.5 -31.5t56.5 -10.5q60 0 101 42q20 20 30.5 45.5t10.5 55t-10.5 54.5t-30.5 46q-41 41 -102 42q-30 -1 -55.5 -11.5t-46.5 -30.5q-41 -41 -41 -100.5zM224 767q23 24 48.5 41.5t53.5 28.5q56 24 121 24q43 0 82 -10.5t74.5 -31
t66.5 -52.5q46 -46 69.5 -102t23.5 -121q0 -130 -93 -223q-24 -23 -49.5 -40.5t-53 -29t-58 -17t-62.5 -5.5q-65 0 -121 23q-19 7 -36.5 17.5t-34 23.5t-31.5 28q-47 47 -70 102.5t-23 120.5t23 121t70 102z" />
    <glyph glyph-name="uni06F1" unicode="&#x6f1;" horiz-adv-x="716" 
d="M310 1376q204 -448 204 -1087v-277h-179v280q0 641 -190 1026z" />
    <glyph glyph-name="uni06F2" unicode="&#x6f2;" horiz-adv-x="1197" 
d="M411 1094q61 -172 274 -172q108 0 156 94q55 106 55 349l180 -1q-1 -75 -5 -140q-19 -256 -108 -368q-98 -122 -274 -121q-135 0 -209 47l1 -7q33 -251 33 -486v-277h-179v280q0 641 -190 1026l164 58z" />
    <glyph glyph-name="uni06F3" unicode="&#x6f3;" horiz-adv-x="1492" 
d="M481 776q33 -249 33 -487v-277h-179v280q0 641 -190 1026l164 58l110 -314q43 -123 192 -124q159 -1 153 257l-2 117l158 5l4 -145q6 -240 157 -241q69 -1 97 60q19 44 23 96q8 110 9 161v133h177l-1 -130q0 -57 -7 -147q-29 -358 -292 -356q-150 1 -247 113l-3 3l-2 -3
q-93 -114 -212 -114q-98 0 -137 32l-6 5z" />
    <glyph glyph-name="uni06F4" unicode="&#x6f4;" horiz-adv-x="1244" 
d="M1083 1340l-43 -172q-77 31 -160 31q-103 0 -173 -51q-116 -87 -130 -221q-5 -45 80 -89q71 -37 196 -37q140 0 262 50l23 -175q-124 -55 -264 -55h-1q-276 1 -396 145l2 -11q35 -246 35 -466v-277h-179v280q0 641 -190 1026l165 58q55 -160 122 -359l15 50
q44 146 149 233q108 90 259 89q121 0 228 -49z" />
    <glyph glyph-name="uni06F5" unicode="&#x6f5;" horiz-adv-x="1288" 
d="M284 339q0 -141 94 -141q149 0 212 295l124 -1q50 -298 185 -298q105 0 105 146q0 334 -375 711q-345 -455 -345 -712zM363 12q-254 0 -254 327q0 324 385 841l1 2l-2 2l-54 50l124 152l126 -119q491 -482 490 -918q0 -337 -265 -337q-186 0 -262 211q-71 -211 -289 -211
z" />
    <glyph glyph-name="uni06F6" unicode="&#x6f6;" horiz-adv-x="1104" 
d="M752 1185q-52 5 -114 5q-192 0 -269 -87q-57 -64 -57 -139q0 -215 377 -216l1 1q201 109 284 143l8 -186q-444 -200 -664 -734l-169 56q130 325 376 568q-399 38 -397 373q0 94 38 173q117 236 440 234q80 0 172 -14z" />
    <glyph glyph-name="uni06F7" unicode="&#x6f7;" horiz-adv-x="1281" 
d="M1183 1290q-319 -639 -459 -1278h-167q-141 640 -459 1278l169 86q267 -574 373 -1049q107 476 374 1049z" />
    <glyph glyph-name="uni06F8" unicode="&#x6f8;" horiz-adv-x="1281" 
d="M1183 77l-169 -85q-267 572 -374 1048q-106 -475 -373 -1048l-169 85q318 638 459 1279h167q140 -640 459 -1279z" />
    <glyph glyph-name="uni06F9" unicode="&#x6f9;" horiz-adv-x="1139" 
d="M500 575q-388 0 -388 351q0 145 70 258q122 196 333 196q368 0 394 -499q22 -442 33 -869h-172l-14 631q-136 -68 -256 -68v0zM503 765q106 0 235 64l-2 23q-28 337 -212 337q-113 0 -178 -89q-59 -80 -59 -165q0 -170 216 -170z" />
    <glyph glyph-name="uni2000" unicode="&#x2000;" horiz-adv-x="1044" 
 />
    <glyph glyph-name="uni2001" unicode="&#x2001;" horiz-adv-x="2089" 
 />
    <glyph glyph-name="uni2002" unicode="&#x2002;" horiz-adv-x="1044" 
 />
    <glyph glyph-name="uni2003" unicode="&#x2003;" horiz-adv-x="2089" 
 />
    <glyph glyph-name="uni2004" unicode="&#x2004;" horiz-adv-x="697" 
 />
    <glyph glyph-name="uni2005" unicode="&#x2005;" horiz-adv-x="522" 
 />
    <glyph glyph-name="uni2006" unicode="&#x2006;" horiz-adv-x="348" 
 />
    <glyph glyph-name="uni2007" unicode="&#x2007;" horiz-adv-x="1151" 
 />
    <glyph glyph-name="uni2008" unicode="&#x2008;" horiz-adv-x="560" 
 />
    <glyph glyph-name="uni2009" unicode="&#x2009;" horiz-adv-x="418" 
 />
    <glyph glyph-name="uni200A" unicode="&#x200a;" horiz-adv-x="209" 
 />
    <glyph glyph-name="uni200B" unicode="&#x200b;" 
 />
    <glyph glyph-name="afii61664" unicode="&#x200c;" 
 />
    <glyph glyph-name="afii301" unicode="&#x200d;" 
 />
    <glyph glyph-name="endash" unicode="&#x2013;" horiz-adv-x="1344" 
d="M1164.55 651h-1001.96v151h1001.96v-151z" />
    <glyph glyph-name="emdash" unicode="&#x2014;" horiz-adv-x="1599" 
d="M1480.78 651h-1335.98v151h1335.98v-151z" />
    <glyph glyph-name="uni2015" unicode="&#x2015;" horiz-adv-x="1599" 
d="M1480.78 651h-1335.98v151h1335.98v-151z" />
    <glyph glyph-name="underscoredbl" unicode="&#x2017;" horiz-adv-x="934" 
d="M929 -404h-916v151h916v-151zM929 -151h-916v151h916v-151z" />
    <glyph glyph-name="quoteleft" unicode="&#x2018;" horiz-adv-x="409" 
d="M96 1193q0 45 11.5 94.5t34 97.5t55 92t73.5 78l106 -72q-48 -66 -72 -135.5t-24 -151.5v-123h-184v120z" />
    <glyph glyph-name="quoteright" unicode="&#x2019;" horiz-adv-x="409" 
d="M327 1408q0 -46 -11.5 -95.5t-34 -97.5t-54.5 -91.5t-74 -77.5l-105 72q47 66 71.5 135.5t24.5 151.5v131h183v-128z" />
    <glyph glyph-name="quotesinglbase" unicode="&#x201a;" horiz-adv-x="407" 
d="M315 78q0 -45 -11.5 -94t-34 -97t-54.5 -92t-74 -78l-105 73q47 66 70.5 135.5t23.5 149.5v106h185v-103z" />
    <glyph glyph-name="quotereversed" unicode="&#x201b;" horiz-adv-x="410" 
d="M80 1408v128h183v-131q0 -82 24.5 -151.5t71.5 -135.5l-105 -72q-42 34 -74 77.5t-54.5 91.5t-34 97.5t-11.5 95.5z" />
    <glyph glyph-name="quotedblleft" unicode="&#x201c;" horiz-adv-x="724" 
d="M104 1193q0 45 11.5 94.5t34 97.5t55 92t73.5 78l106 -72q-48 -66 -72 -135.5t-24 -151.5v-123h-184v120zM419 1193q0 45 11.5 94.5t34 97.5t55 92t73.5 78l106 -72q-48 -66 -72 -135.5t-24 -151.5v-123h-184v120z" />
    <glyph glyph-name="quotedblright" unicode="&#x201d;" horiz-adv-x="731" 
d="M339 1408q0 -46 -11.5 -95.5t-34 -97.5t-54.5 -91.5t-74 -77.5l-105 72q47 66 71.5 135.5t24.5 151.5v131h183v-128zM646 1408q0 -46 -11.5 -95.5t-34 -97.5t-54.5 -91.5t-74 -77.5l-105 72q47 66 71.5 135.5t24.5 151.5v131h183v-128z" />
    <glyph glyph-name="quotedblbase" unicode="&#x201e;" horiz-adv-x="705" 
d="M315 78q0 -47 -11.5 -99t-34 -102t-54.5 -96t-74 -82l-105 72q47 71 70.5 144.5t23.5 159.5v171h185v-168zM612 78q0 -47 -11.5 -99t-34 -102t-55 -96t-74.5 -82l-105 72q47 71 70.5 144.5t23.5 159.5v171h186v-168z" />
    <glyph glyph-name="dagger" unicode="&#x2020;" horiz-adv-x="1129" 
d="M1060 929h-404v-929h-186v929h-400v153h400v374h186v-374h404v-153z" />
    <glyph glyph-name="daggerdbl" unicode="&#x2021;" horiz-adv-x="1167" 
d="M1076 0h-406v-416h-186v416h-397v151h397v778h-397v153h397v374h186v-374h406v-153h-406v-778h406v-151z" />
    <glyph glyph-name="bullet" unicode="&#x2022;" horiz-adv-x="690" 
d="M138 793q0 43 14.5 79.5t40.5 62.5t63.5 41t84.5 15q48 0 86 -15t64.5 -41t40.5 -62.5t14 -79.5v-61q0 -43 -14 -79t-40.5 -62.5t-64 -41t-85.5 -14.5q-47 0 -84.5 14.5t-64 41t-41 62.5t-14.5 79v61z" />
    <glyph glyph-name="uni2025" unicode="&#x2025;" horiz-adv-x="964" 
d="M189 140q0 56 39.5 96t95.5 40t95.5 -40t39.5 -95.5t-39.5 -95.5t-95.5 -40q-49 0 -85 31q-27 22 -40 53q-10 23 -10 51zM626 140q0 56 39.5 96t95.5 40t95.5 -40t39.5 -95.5t-39.5 -95.5t-95.5 -40q-49 0 -85 31q-27 22 -40 53q-10 23 -10 51z" />
    <glyph glyph-name="ellipsis" unicode="&#x2026;" horiz-adv-x="1370" 
d="M189 140q0 56 39.5 96t95.5 40t95.5 -40t39.5 -95.5t-39.5 -95.5t-95.5 -40q-49 0 -85 31q-27 22 -40 53q-10 23 -10 51zM626 140q0 56 39.5 96t95.5 40t95.5 -40t39.5 -95.5t-39.5 -95.5t-95.5 -40q-49 0 -85 31q-27 22 -40 53q-10 23 -10 51zM1041 140q0 56 39.5 96
t95.5 40t95.5 -40t39.5 -95.5t-39.5 -95.5t-95.5 -40q-49 0 -85 31q-27 22 -40 53q-10 23 -10 51z" />
    <glyph glyph-name="uni202F" unicode="&#x202f;" horiz-adv-x="126" 
 />
    <glyph glyph-name="perthousand" unicode="&#x2030;" horiz-adv-x="1962" 
d="M823 357q0 61 20.5 116t59.5 95.5t94 64.5t124 24q78 0 136 -33t94 -88q35 55 93 88t136 33q70 0 125.5 -24t94 -64.5t59 -95.5t20.5 -116v-78q0 -62 -20.5 -116.5t-58.5 -95t-93.5 -64.5t-124.5 -24q-78 0 -136.5 32.5t-94.5 87.5q-35 -55 -93 -87.5t-135 -32.5
q-70 0 -125.5 24t-94.5 64.5t-59.5 95t-20.5 116.5v78zM68 1176q0 62 20.5 116.5t59.5 95.5t94 65t124 24q70 0 125.5 -24t94 -65t59 -95.5t20.5 -116.5v-77q0 -61 -20.5 -115.5t-58.5 -95t-93 -64.5t-125 -24t-125.5 24t-94.5 64.5t-59.5 95t-20.5 115.5v77zM962 279
q0 -35 10 -67.5t30 -57.5t50 -40t71 -15q40 0 70 15t50 40t29.5 57.5t9.5 67.5v78q0 35 -10 67.5t-30 57.5t-50 40t-71 15q-40 0 -70 -15t-49.5 -40t-29.5 -57.5t-10 -67.5v-78zM1420 279q0 -35 10 -67.5t30 -57.5t50 -40t71 -15q40 0 70 15t49.5 40t29.5 57.5t10 67.5v78
q0 35 -10 67.5t-30 57.5t-50 40t-71 15q-40 0 -70 -15t-49.5 -40t-29.5 -57.5t-10 -67.5v-78zM207 1099q0 -35 10 -67t30 -57t50 -40t71 -15q40 0 70 15t50 39.5t29.5 57t9.5 67.5v77q0 35 -10 68t-30 58t-50 40t-71 15q-40 0 -70 -15t-49.5 -40t-29.5 -58t-10 -68v-77z
M429 110l-104 66l711 1138l104 -66z" />
    <glyph glyph-name="minute" unicode="&#x2032;" horiz-adv-x="357" 
d="M253 1425l-21 -368h-129l1 352v127h149v-111z" />
    <glyph glyph-name="second" unicode="&#x2033;" horiz-adv-x="655" 
d="M277 1400l-30 -358h-111l1 348v146h140v-136zM547 1400l-30 -358h-111l1 356v138h140v-136z" />
    <glyph glyph-name="guilsinglleft" unicode="&#x2039;" horiz-adv-x="614" 
d="M286 550l258 -397h-141l-295 388v19l295 389h141z" />
    <glyph glyph-name="guilsinglright" unicode="&#x203a;" horiz-adv-x="614" 
d="M231 949l295 -389v-19l-295 -389h-142l258 398l-258 399h142z" />
    <glyph glyph-name="exclamdbl" unicode="&#x203c;" horiz-adv-x="1054" 
d="M185 140q0 56 39.5 96t95.5 40t95.5 -40t39.5 -95.5t-39.5 -95.5t-95.5 -40q-49 0 -85 31q-27 22 -40 53q-10 23 -10 51zM213 1407h218l-25 -958h-167zM712 140q0 56 39.5 96t95.5 40t95.5 -40t39.5 -95.5t-39.5 -95.5t-95.5 -40q-49 0 -85 31q-27 22 -40 53
q-10 23 -10 51zM740 1407h218l-25 -958h-167z" />
    <glyph glyph-name="fraction" unicode="&#x2044;" horiz-adv-x="931" 
d="M163 110l-104 66l711 1138l104 -66z" />
    <glyph glyph-name="uni2074" unicode="&#x2074;" horiz-adv-x="751" 
d="M592 966h107v-130h-107v-169h-157v169h-375l-6 102l377 518h161v-490zM212 966h223v289l-17 -28z" />
    <glyph glyph-name="nsuperior" unicode="&#x207f;" horiz-adv-x="864" 
d="M250 1451l30 -123q35 65 91 101.5t129 36.5q60 0 108 -17.5t81.5 -55t52 -95.5t18.5 -139v-508h-170v476q0 54 -10.5 91.5t-29 60.5t-45 33t-59.5 10q-59 0 -96.5 -29.5t-57.5 -79.5v-562h-170v800h128z" />
    <glyph glyph-name="franc" unicode="&#x20a3;" horiz-adv-x="1132" 
d="M654 266h-636v151h636v-151zM972 643h-611v-643h-192v1456h902v-158h-710v-498h611v-157z" />
    <glyph glyph-name="lira" unicode="&#x20a4;" horiz-adv-x="1190" 
d="M789 470h-335l3 -68q0 -70 -15 -134t-47 -111h733l-1 -157h-1032v157h77q26 6 43.5 32.5t28.5 62.5t15.5 76t4.5 73l-3 69h-170v125h166l-4 136h-162v125h157l-6 183q0 103 33.5 184.5t93 137.5t141 85.5t177.5 29.5q97 0 174 -28.5t129.5 -79.5t80.5 -122.5t28 -158.5
h-191q0 63 -20 106.5t-53 71.5t-76 40.5t-89 12.5q-49 0 -92 -18.5t-74.5 -54t-50 -87.5t-18.5 -119l6 -183h348v-125h-343l4 -136h339v-125z" />
    <glyph glyph-name="peseta" unicode="&#x20a7;" horiz-adv-x="1681" 
d="M352 565v-565h-185v1456h378q124 0 211.5 -33.5t143.5 -93t82 -141t26 -177.5t-26 -178t-82 -141.5t-143.5 -93t-211.5 -33.5h-193zM352 717h193q87 0 141 25t84.5 65.5t41 93t10.5 108.5t-10.5 109t-41 94.5t-84.5 66.5t-141 25h-193v-587zM1331 1344v-262h202v-143
h-202v-671q0 -42 10 -67.5t26.5 -39.5t38 -18.5t44.5 -4.5t48.5 4.5t39.5 7.5v-150q-22 -6 -57 -13t-85 -7q-51 0 -96.5 14.5t-79.5 48.5t-54 89.5t-20 136.5v670h-197v143h197v262h185z" />
    <glyph glyph-name="uni20AB" unicode="&#x20ab;" horiz-adv-x="1185" 
d="M1196 1234h-636v151h636v-151zM95 550q0 124 30.5 225.5t86.5 174t134.5 112.5t175.5 40q99 0 173 -33.5t128 -96.5v564h185v-1536h-170l-9 116q-54 -66 -130 -101t-179 -35q-95 0 -173.5 41t-134.5 114.5t-86.5 174t-30.5 219.5v21zM280 529q0 -81 16.5 -152.5
t51.5 -124.5t89 -84t129 -31q49 0 88 11.5t70.5 32.5t56 50t42.5 64v497q-18 33 -42 61t-55.5 48.5t-70.5 32t-87 11.5q-76 0 -130.5 -31.5t-89.5 -85.5t-51.5 -125.5t-16.5 -152.5v-21zM1079 -307h-916v151h916v-151z" />
    <glyph glyph-name="Euro" unicode="&#x20ac;" horiz-adv-x="1150" 
d="M849 541h-384q2 -103 27.5 -179t71 -126.5t109 -75t141.5 -24.5q58 0 112.5 8.5t105.5 25.5l20 -160q-56 -14 -116.5 -22t-123.5 -8q-117 0 -215 35t-169 105t-111.5 175.5t-43.5 245.5h-178v124h178v137h-178v125h178q5 136 46 239t112 172t167.5 103.5t212.5 34.5
q63 0 121.5 -8.5t119.5 -22.5l-20 -162q-50 16 -105.5 25.5t-113.5 9.5q-77 0 -139.5 -23.5t-107.5 -72t-71 -122t-29 -173.5h383v-125h-384v-137h384v-124z" />
    <glyph glyph-name="uni2105" unicode="&#x2105;" horiz-adv-x="1512" 
d="M681 1054q0 -52 -19 -98.5t-54.5 -81t-87 -54.5t-115.5 -20q-65 0 -117.5 24t-89 64.5t-56 95t-19.5 115.5v77q0 62 19.5 116.5t56 95.5t88 65t116.5 24t116.5 -20.5t87.5 -55t55 -81.5t19 -99h-139q0 27 -8.5 51.5t-25.5 43t-43 30t-62 11.5q-35 0 -61.5 -15t-44 -40
t-26.5 -58t-9 -68v-77q0 -35 9 -67t27 -57t44.5 -40t62.5 -15q35 0 61 12t43 31.5t25 43t8 47.5h139zM814 357q0 61 20.5 116t59.5 95.5t94 64.5t124 24q70 0 125.5 -24t94 -64.5t59 -95.5t20.5 -116v-78q0 -62 -20.5 -116.5t-58.5 -95t-93.5 -64.5t-124.5 -24
q-70 0 -125.5 24t-94.5 64.5t-59.5 95t-20.5 116.5v78zM953 279q0 -35 10 -67.5t30 -57.5t50 -40t71 -15q40 0 70 15t50 40t29.5 57.5t9.5 67.5v78q0 35 -10 67.5t-30 57.5t-50 40t-71 15q-40 0 -70 -15t-49.5 -40t-29.5 -57.5t-10 -67.5v-78zM445 110l-104 66l711 1138
l104 -66z" />
    <glyph glyph-name="uni2113" unicode="&#x2113;" horiz-adv-x="974" 
d="M716 -21q-102 0 -178 32t-126.5 91.5t-75 143t-24.5 185.5v17q-49 -14 -100.5 -21t-107.5 -7v176q58 0 110 9t98 26v545q0 89 20 159.5t58 119t91.5 74.5t121.5 26q59 0 108.5 -22t85.5 -62.5t56.5 -99.5t20.5 -132v-41q0 -89 -24.5 -183.5t-72.5 -183.5t-118.5 -167
t-161.5 -135v-98q0 -69 11 -123.5t36.5 -92.5t67.5 -58.5t104 -20.5v-157zM497 747q49 47 85.5 103.5t60 115.5t35 118t11.5 112v43q0 82 -24 120t-62 38q-106 0 -106 -221v-429z" />
    <glyph glyph-name="uni2116" unicode="&#x2116;" horiz-adv-x="2106" 
d="M1956 412h-615v142h615v-142zM1305 1127q0 77 24 140.5t68.5 109t107.5 70.5t142 25q80 0 143.5 -25t108 -70.5t68 -109t23.5 -140.5v-98q0 -77 -23.5 -140.5t-68 -108.5t-107.5 -69.5t-142 -24.5q-80 0 -143.5 24.5t-108 69.5t-68.5 108.5t-24 140.5v98zM1468 1029
q0 -46 11 -83.5t33.5 -64.5t56.5 -42t80 -15q45 0 78.5 15t55.5 42t33 64.5t11 83.5v98q0 45 -11 82.5t-33.5 64.5t-56 42t-79.5 15q-45 0 -78.5 -15t-56 -42t-33.5 -64.5t-11 -82.5v-98zM1144 0h-204l-593 1134v-1134h-185v1456h203l596 -1137v1137h183v-1456z" />
    <glyph glyph-name="trademark" unicode="&#x2122;" horiz-adv-x="1281" 
d="M990 1313l-140 -394h-52l-140 393v-393h-90v537h112l144 -399l144 399h112v-537h-90v394zM489 1375h-147v-456h-91v456h-148v81h386v-81z" />
    <glyph glyph-name="estimated" unicode="&#x212e;" horiz-adv-x="1303" 
d="M1046 94q-85 -53 -178 -83.5t-192 -30.5q-72 0 -139.5 20t-125.5 57t-106 88t-82 113.5t-52.5 134t-18.5 148.5t20.5 148.5t57 134t86 113.5t108 88t122.5 57t130 20q103 0 193 -41t157 -113t106 -171t39 -216v-47h-768v-328q55 -51 125 -80.5t148 -29.5q94 0 186.5 29.5
t181.5 92.5zM676 1008q-75 0 -145.5 -32.5t-127.5 -89.5v-277h540v286q-53 52 -121.5 82.5t-145.5 30.5z" />
    <glyph glyph-name="oneeighth" unicode="&#x215b;" horiz-adv-x="1574" 
d="M1439 579q0 -58 -31.5 -102.5t-87.5 -70.5q64 -27 101.5 -75.5t37.5 -114.5q0 -57 -22.5 -99.5t-62.5 -71t-94 -42.5t-117 -14t-117 14t-94 42.5t-62.5 71t-22.5 99.5q0 66 37 114.5t101 75.5q-56 26 -87.5 70.5t-31.5 102.5q0 54 20.5 95t57.5 69t87.5 42.5t110.5 14.5
t111 -14.5t88 -42.5t57.5 -69t20.5 -95zM1302 228q0 52 -39 81t-101 29q-63 0 -100.5 -29t-37.5 -81q0 -53 38 -82t101 -29t101 29t38 82zM1282 570q0 46 -32 73.5t-88 27.5q-55 0 -86.5 -26.5t-31.5 -74.5q0 -46 31.5 -74t87.5 -28t87.5 28t31.5 74zM457 646h-157v601
l-216 -57v128l355 117h18v-789zM393 110l-104 66l711 1138l104 -66z" />
    <glyph glyph-name="threeeighths" unicode="&#x215c;" horiz-adv-x="1751" 
d="M1599 579q0 -58 -31.5 -102.5t-87.5 -70.5q64 -27 101.5 -75.5t37.5 -114.5q0 -57 -22.5 -99.5t-62.5 -71t-94 -42.5t-117 -14t-117 14t-94 42.5t-62.5 71t-22.5 99.5q0 66 37 114.5t101 75.5q-56 26 -87.5 70.5t-31.5 102.5q0 54 20.5 95t57.5 69t87.5 42.5t110.5 14.5
t111 -14.5t88 -42.5t57.5 -69t20.5 -95zM1462 228q0 52 -39 81t-101 29q-63 0 -100.5 -29t-37.5 -81q0 -53 38 -82t101 -29t101 29t38 82zM1442 570q0 46 -32 73.5t-88 27.5q-55 0 -86.5 -26.5t-31.5 -74.5q0 -46 31.5 -74t87.5 -28t87.5 28t31.5 74zM303 1119h84
q74 0 110 30.5t36 78.5q0 45 -31.5 74t-101.5 29q-28 0 -52 -6.5t-42 -18.5t-28 -29t-10 -38h-157q0 51 22 91.5t61 69.5t91.5 44.5t112.5 15.5q65 0 119 -14.5t92.5 -43t60 -70.5t21.5 -97t-35 -100.5t-101 -70.5q77 -21 113 -68t36 -116q0 -56 -23.5 -99t-64.5 -72
t-97 -44.5t-121 -15.5q-56 0 -109.5 13.5t-95.5 42t-67.5 72.5t-25.5 105h158q0 -45 39.5 -75t106.5 -30q70 0 106.5 30t36.5 81q0 62 -43.5 88.5t-116.5 26.5h-84v116zM584 110l-104 66l711 1138l104 -66z" />
    <glyph glyph-name="fiveeighths" unicode="&#x215d;" horiz-adv-x="1743" 
d="M1589 579q0 -58 -31.5 -102.5t-87.5 -70.5q64 -27 101.5 -75.5t37.5 -114.5q0 -57 -22.5 -99.5t-62.5 -71t-94 -42.5t-117 -14t-117 14t-94 42.5t-62.5 71t-22.5 99.5q0 66 37 114.5t101 75.5q-56 26 -87.5 70.5t-31.5 102.5q0 54 20.5 95t57.5 69t87.5 42.5t110.5 14.5
t111 -14.5t88 -42.5t57.5 -69t20.5 -95zM1452 228q0 52 -39 81t-101 29q-63 0 -100.5 -29t-37.5 -81q0 -53 38 -82t101 -29t101 29t38 82zM1432 570q0 46 -32 73.5t-88 27.5q-55 0 -86.5 -26.5t-31.5 -74.5q0 -46 31.5 -74t87.5 -28t87.5 28t31.5 74zM120 1042l50 402h478
v-132h-349l-22 -170q18 8 55.5 18.5t83.5 10.5q128 0 199.5 -68.5t71.5 -189.5q0 -54 -17.5 -103t-54 -85.5t-92 -58.5t-130.5 -22q-56 0 -107.5 15t-92 44t-66 71.5t-28.5 96.5h155q5 -52 42.5 -75.5t96.5 -23.5q36 0 62 11t42.5 30t24.5 45t8 57q0 62 -39 100.5t-113 38.5
q-27 0 -47 -4t-35.5 -10t-27 -13.5t-22.5 -15.5zM550 110l-104 66l711 1138l104 -66z" />
    <glyph glyph-name="seveneighths" unicode="&#x215e;" horiz-adv-x="1642" 
d="M1513 579q0 -58 -31.5 -102.5t-87.5 -70.5q64 -27 101.5 -75.5t37.5 -114.5q0 -57 -22.5 -99.5t-62.5 -71t-94 -42.5t-117 -14t-117 14t-94 42.5t-62.5 71t-22.5 99.5q0 66 37 114.5t101 75.5q-56 26 -87.5 70.5t-31.5 102.5q0 54 20.5 95t57.5 69t87.5 42.5t110.5 14.5
t111 -14.5t88 -42.5t57.5 -69t20.5 -95zM1376 228q0 52 -39 81t-101 29q-63 0 -100.5 -29t-37.5 -81q0 -53 38 -82t101 -29t101 29t38 82zM1356 570q0 46 -32 73.5t-88 27.5q-55 0 -86.5 -26.5t-31.5 -74.5q0 -46 31.5 -74t87.5 -28t87.5 28t31.5 74zM708 1354l-349 -699
h-166l349 659h-453v130h619v-90zM451 110l-104 66l711 1138l104 -66z" />
    <glyph glyph-name="partialdiff" unicode="&#x2202;" horiz-adv-x="1167" 
d="M572 1022q93 0 176 -38.5t141 -106.5q-11 110 -45 198.5t-85 150.5t-115.5 95.5t-135.5 33.5q-80 0 -146.5 -16t-137.5 -43l-16 151q27 12 57.5 24.5t68 22t84 16t106.5 6.5q138 0 241 -59t171.5 -167t103 -261t34.5 -340v-59q0 -138 -33 -257t-95.5 -206.5t-153 -137.5
t-204.5 -50t-203.5 40t-151.5 111t-94.5 167.5t-32.5 209.5v23q0 105 31.5 195t91.5 156t146.5 103.5t196.5 37.5zM590 870q-77 0 -133.5 -27.5t-93 -74.5t-54.5 -108.5t-18 -129.5v-23q0 -76 18 -144.5t54.5 -120t92.5 -82t132 -30.5q78 0 134.5 36t93.5 98.5t55 147
t18 181.5v66q-5 25 -23.5 61.5t-54 69.5t-90 56.5t-131.5 23.5z" />
    <glyph glyph-name="product" unicode="&#x220f;" horiz-adv-x="1422" 
d="M1253 -213h-185v1517h-714v-1517h-185v1669h1084v-1669z" />
    <glyph glyph-name="summation" unicode="&#x2211;" horiz-adv-x="1199" 
d="M875 577l-581 -694h901v-152h-1126v143l609 716l-609 722v144h1049v-152h-825l582 -702v-25z" />
    <glyph glyph-name="minus" unicode="&#x2212;" horiz-adv-x="1170" 
d="M1003 651h-835v151h835v-151z" />
    <glyph glyph-name="radical" unicode="&#x221a;" horiz-adv-x="1221" 
d="M560 284l427 1172h189l-542 -1456h-141l-245 628h-185v154h315z" />
    <glyph glyph-name="infinity" unicode="&#x221e;" horiz-adv-x="2106" 
d="M1995 527q0 -109 -35 -208.5t-98.5 -175t-153.5 -120t-199 -44.5q-93 0 -166.5 33.5t-129.5 85.5t-97.5 116t-69.5 126q-28 -62 -69 -126t-97 -116t-129 -85.5t-166 -33.5q-110 0 -200 44.5t-153.5 120t-98.5 175t-35 208.5v26q0 109 35 208.5t98.5 175t153 120.5
t198.5 45q93 0 166.5 -33.5t130 -86t97.5 -116.5t69 -126q28 62 69.5 126t98 116.5t130.5 86t167 33.5q109 0 198 -45t152.5 -120.5t98.5 -175t35 -208.5v-26zM283 527q0 -81 19.5 -153.5t58 -126.5t94.5 -85.5t130 -31.5q59 0 107.5 23t87 59t67.5 80.5t49.5 88t33 80.5
t17.5 59v42q-5 21 -17.5 57.5t-33 80t-50 88t-68 80.5t-87.5 59t-108 23q-73 0 -129 -32t-94 -86t-57.5 -126t-19.5 -153v-26zM1810 553q0 81 -20 153t-58 126t-93.5 86t-127.5 32q-60 0 -108.5 -23t-87.5 -59t-68.5 -80.5t-50 -88t-33 -80t-17.5 -57.5v-42q5 -22 17.5 -59
t33 -80.5t50 -88t68 -80.5t87 -59t107.5 -23q72 0 128.5 31.5t94.5 85.5t58 126.5t20 153.5v26z" />
    <glyph glyph-name="integral" unicode="&#x222b;" horiz-adv-x="524" 
d="M357 -107q0 -84 -22 -146.5t-63.5 -103t-101 -60.5t-135.5 -20q-30 0 -58 5t-57 15l18 145q7 -2 17.5 -4.5t21.5 -4.5t21.5 -3t18.5 -1q74 0 114.5 42.5t40.5 135.5v1305q0 87 23.5 154t67 112.5t106 69t141.5 23.5q37 0 72.5 -6t71.5 -15l-24 -142q-17 5 -39.5 8
t-51.5 3q-89 0 -135.5 -54.5t-46.5 -152.5v-1305v0z" />
    <glyph glyph-name="approxequal" unicode="&#x2248;" horiz-adv-x="1154" 
d="M102 901q48 51 113.5 80t131.5 29q40 1 69.5 -4.5t55.5 -15.5t51.5 -23.5t57.5 -29.5q30 -15 53.5 -27.5t48 -22t52 -14.5t64.5 -5q66 0 127 34t109 94v-190q-48 -51 -109 -80t-127 -29q-37 0 -64.5 5t-52 14.5t-48 22t-53.5 27.5q-32 16 -57.5 30t-51.5 24t-55.5 15.5
t-69.5 4.5q-66 0 -131.5 -34t-113.5 -94v189zM101 483q48 51 113 80.5t131 29.5q40 1 69.5 -4.5t55.5 -15.5t51.5 -23.5t57.5 -29.5q30 -15 54 -28t48 -22t52 -14.5t65 -5.5q66 0 126.5 34t108.5 94l1 -189q-48 -51 -109 -80t-127 -29q-37 0 -64.5 5t-52 14.5t-48 22
t-53.5 27.5q-32 16 -57.5 29.5t-51.5 23.5t-55.5 15.5t-69.5 4.5q-66 0 -131.5 -34t-113.5 -94v189z" />
    <glyph glyph-name="notequal" unicode="&#x2260;" horiz-adv-x="1124" 
d="M986 399h-531l-141 -243l-95 59l107 184h-174v160h268l149 255h-417v161h511l153 262l94 -59l-119 -203h195v-161h-289l-148 -255h437v-160z" />
    <glyph glyph-name="lessequal" unicode="&#x2264;" horiz-adv-x="1041" 
d="M264 676.576l626 -227.69v-176.393l-818 341.086v131.395l818 340.187v-176.394zM897 2h-835v151h835v-151z" />
    <glyph glyph-name="greaterequal" unicode="&#x2265;" horiz-adv-x="1071" 
d="M795 699.977l-661 233.09v170.993l854 -340.186v-131.396l-854 -341.086v172.793zM968 1h-835v151h835v-151z" />
    <glyph glyph-name="lozenge" unicode="&#x25ca;" horiz-adv-x="1032" 
d="M444 1456h140l404 -729l-400 -727h-141l-404 727zM513 1254l-279 -527l284 -526l280 526z" />
    <glyph glyph-name="colon.lnum" unicode="&#xee01;" horiz-adv-x="588" 
d="M222 318q0 56 39.5 96t95.5 40t95.5 -40t39.5 -95.5t-39.5 -95.5t-95.5 -40q-49 0 -85 31q-27 22 -40 53q-10 23 -10 51zM222 1200q0 56 39.5 96t95.5 40t95.5 -40t39.5 -95.5t-39.5 -95.5t-95.5 -40q-49 0 -85 31q-27 22 -40 53q-10 23 -10 51z" />
    <glyph glyph-name="quotedblx" unicode="&#xee02;" horiz-adv-x="655" 
d="M251 633h-141v449h141v-449zM563 633h-141v449h141v-449z" />
    <glyph glyph-name="commaaccent" unicode="&#xf6c3;" horiz-adv-x="515" 
d="M343 160q0 -40 -9 -83.5t-27 -86.5t-45.5 -82t-64.5 -69l-105 72q38 58 56 117.5t18 128.5v82h177v-79z" />
    <glyph glyph-name="uniFB02" unicode="&#xfb02;" horiz-adv-x="1208" 
d="M231 0v939h-171v143h171v114q0 87 24.5 154.5t70.5 113.5t112 69.5t149 23.5q64 0 127 -17l-10 -150q-21 4 -47.5 6.5t-52.5 2.5q-90 0 -139 -52.5t-49 -150.5v-114h231v-143h-231v-939h-185zM1052 0h-185v1536h185v-1536z" />
    <glyph glyph-name="uniFB03" unicode="&#xfb03;" horiz-adv-x="1845" 
d="M231 0v939h-171v143h171v114q0 87 24.5 154.5t70.5 113.5t112 69.5t149 23.5q64 0 127 -17l-10 -150q-21 4 -47.5 6.5t-52.5 2.5q-90 0 -139 -52.5t-49 -150.5v-114h231v-143h-231v-939h-185zM913 0v939h-171v143h171v94q0 92 27.5 163t78.5 119.5t124.5 73.5t165.5 25
q73 0 141.5 -17.5t141.5 -43.5l-31 -156q-45 18 -105.5 34t-132.5 16q-119 0 -171.5 -53.5t-52.5 -160.5v-94h221v-143h-221v-939h-186zM1684 0h-186v1082h186v-1082z" />
    <glyph glyph-name="uniFB04" unicode="&#xfb04;" horiz-adv-x="1919" 
d="M231 0v939h-171v143h171v114q0 87 24.5 154.5t70.5 113.5t112 69.5t149 23.5q64 0 127 -17l-10 -150q-21 4 -47.5 6.5t-52.5 2.5q-90 0 -139 -52.5t-49 -150.5v-114h231v-143h-231v-939h-185zM942 0v939h-171v143h171v114q0 87 24.5 154.5t70.5 113.5t112 69.5t149 23.5
q64 0 127 -17l-10 -150q-21 4 -47.5 6.5t-52.5 2.5q-90 0 -139 -52.5t-49 -150.5v-114h231v-143h-231v-939h-185zM1763 0h-185v1536h185v-1536z" />
    <glyph glyph-name="uniFE73" unicode="&#xfe73;" horiz-adv-x="672" 
d="M300 426q0 -242 318 -242h71v-182h-81q-498 0 -498 427v24h190v-27z" />
    <glyph glyph-name="uniFEFF" unicode="&#xfeff;" 
 />
    <glyph glyph-name="uniFFFC" unicode="&#xfffc;" horiz-adv-x="2099" 
d="M825 468q0 -49 -16.5 -89t-47 -69t-72.5 -45t-93 -16q-52 0 -94.5 16t-73 45t-47.5 69t-17 89v112q0 48 17 88.5t47 69.5t72.5 45t93.5 16t93.5 -16t73 -45t47.5 -69.5t17 -88.5v-112zM892 252v549h188q98 0 155 -36.5t57 -113.5q0 -38 -21 -69t-63 -47q50 -13 76 -48
t26 -80q0 -77 -52.5 -116t-144.5 -39h-221zM733 580q0 69 -37 108t-102 39q-64 0 -101 -39t-37 -108v-112q0 -69 37 -108t103 -39q64 0 100.5 39t36.5 108v112zM1687 803h92v-378q0 -40 -14 -71.5t-39 -53.5t-59.5 -34t-74.5 -12q-88 0 -142.5 40.5t-54.5 123.5h93
q0 -47 28 -69t76 -22q41 0 68 27t27 71v378zM91 -398v315h113v-202h196v-113h-309zM1720 -398v113h199v202h111v-315h-310zM91 1169v285h309v-116h-196v-169h-113zM1720 1338v116h310v-285h-111v169h-199zM987 496v-169h126q52 0 77.5 22t25.5 61q0 38 -24.5 61t-73.5 25h-5
h-126zM1321 1338v116h278v-116h-278zM922 1338v116h277v-116h-277zM523 1338v116h276v-116h-276zM1321 -398v113h278v-113h-278zM922 -398v113h277v-113h-277zM523 -398v113h276v-113h-276zM987 566h93q118 0 118 80q0 41 -29 56t-89 15h-93v-151zM204 416h-113v252h113
v-252zM204 794h-113v250h113v-250zM204 41h-113v249h113v-249zM2030 416h-111v252h111v-252zM2030 794h-111v250h111v-250zM2030 41h-111v249h111v-249z" />
    <glyph glyph-name="uniFFFD" unicode="&#xfffd;" horiz-adv-x="2101" 
d="M1048 1618l959 -975l-959 -975l-956 975zM1131 402q0 25 2.5 45t10 36.5t20 30.5t33.5 28q34 18 64 44t52.5 57.5t36 68.5t13.5 78q0 64 -21.5 115.5t-62 88t-99.5 56t-133 19.5q-64 0 -119 -15t-96.5 -47.5t-65.5 -83t-25 -120.5h203q1 27 9.5 46.5t23 32t32.5 18.5
t38 6q57 0 85 -32t28 -84t-26.5 -90.5t-66.5 -64.5q-35 -25 -61 -46.5t-43 -47t-25.5 -58.5t-8.5 -81h202zM1131 311h-202v-170h202v170zM1056 -551h4v-4h-4v4zM1054 2163h4v-4h-4v4z" />
    <glyph glyph-name="arabic_dot" horiz-adv-x="193" 
d="M-40 103l136 136l137 -137l-136 -136z" />
    <glyph glyph-name="arabic_2dots" horiz-adv-x="514" 
d="M274 103l136 136l137 -137l-136 -136zM-30 103l136 136l137 -137l-136 -136z" />
    <glyph glyph-name="arabic_3dots" horiz-adv-x="514" 
d="M123 335l133 133l134 -134l-133 -133zM277 84l133 133l134 -134l-133 -133zM-26 84l132 133l134 -134l-133 -133z" />
    <glyph glyph-name="arabic_3dots_a" horiz-adv-x="514" 
d="M123 -134l134 133l133 -133l-134 -133zM277 117l134 133l133 -132l-134 -134zM-26 117l133 133l133 -132l-134 -134z" />
    <glyph glyph-name="arabic_gaf_bar" horiz-adv-x="751" 
d="M737 1858l-731 -282v120l731 282v-120z" />
    <glyph glyph-name="NameMe.302" horiz-adv-x="645" 
d="M22 0h-29q-58 0 -58 88v19q0 77 58 77h31q231 0 231 247v723h174v-723q0 -247 203 -247h11q31 0 31 -77v-19q0 -49 -9 -67q-8 -21 -22 -21h-8q-202 0 -304 143q-98 -143 -309 -143z" />
    <glyph glyph-name="NameMe.303" horiz-adv-x="574" 
d="M-7 0q-58 0 -58 88v19q0 77 58 77h58q196 0 196 211v922h174v-928q0 -389 -376 -389h-52z" />
    <glyph glyph-name="NameMe.65564" horiz-adv-x="531" 
d="M559 88q1 -88 -20 -88h-21q-368 0 -368 434v794h174v-792q0 -252 197 -252h18q20 0 20 -77v-19z" />
    <glyph glyph-name="NameMe.65565" horiz-adv-x="722" 
d="M117 -281q62 -13 116 -13q158 0 220 50q47 38 47 80q0 25 -37 26l-100 2q-117 3 -117 121q0 122 125 202q89 56 247 57l-9 -126q-227 -5 -242 -121l-1 -10l111 -4q117 -3 137 -101q19 -98 -67 -193q-98 -107 -321 -107q-60 0 -128 11z" />
    <glyph glyph-name="NameMe.65541" horiz-adv-x="596" 
d="M69 0h-76q-58 0 -58 88v19q0 77 58 77h76q110 0 167 32q85 50 85 209q0 119 -37 265l163 41q49 -156 49 -303q0 -245 -140 -351q-102 -77 -287 -77z" />
    <glyph glyph-name="NameMe.65542" horiz-adv-x="667" 
d="M695 88q0 -88 -20 -88h-10q-198 0 -273 141q-99 -141 -296 -141h-104q-57 0 -57 88v19q0 77 57 77h99q181 0 206 132q6 35 6 83q0 50 -3 95l-5 81l164 20l16 -231q13 -180 192 -180h8q20 0 20 -86v-10z" />
    <glyph glyph-name="zero.sup" horiz-adv-x="751" 
d="M669 325q0 -86 -21 -149t-59 -104.5t-92.5 -62t-120.5 -20.5t-120.5 20.5t-93.5 62t-60.5 104.5t-21.5 149v138q0 85 21 148.5t60 105.5t93 62.5t120 20.5q67 0 121.5 -20.5t93 -62.5t59.5 -105.5t21 -148.5v-138zM512 478q0 100 -35.5 146t-102.5 46q-66 0 -101.5 -46
t-35.5 -146v-167q0 -101 36.5 -147.5t102.5 -46.5t101 46.5t35 147.5v167z" />
    <glyph glyph-name="largerighthook" horiz-adv-x="779" 
d="M-94 833h213q141 0 251.5 -39t187.5 -113.5t117.5 -181.5t40.5 -243q0 -130 -30.5 -231.5t-90 -171t-148 -106t-204.5 -36.5l-2 147q80 0 135.5 28.5t89.5 80.5t49 125.5t15 163.5q-1 203 -103 309t-308 106h-213v162z" />
    <glyph glyph-name="circumflexgravecomb" horiz-adv-x="1011" 
d="M838 1233h-197l-170 158l-170 -158h-196l290 263h152zM178 1408h-140l-200 258h199z" />
    <glyph glyph-name="circumflexacutecomb" horiz-adv-x="1007" 
d="M402 1514h152l290 -262h-197l-169 158l-170 -158h-198zM912 1685h200l-201 -259h-141z" />
    <glyph glyph-name="brevegravecomb" horiz-adv-x="932" 
d="M767 1456q0 -59 -23.5 -107.5t-67.5 -84t-106.5 -55t-140.5 -19.5t-140.5 19.5t-106.5 55t-67.5 84t-23.5 107.5h150q0 -30 10 -56.5t32.5 -47t58 -32.5t87.5 -12q51 0 86.5 12t58 32.5t32.5 47t10 56.5h151zM513 1451h-151l-210 206h216z" />
    <glyph glyph-name="commaaccentrotate" horiz-adv-x="509" 
d="M159 1295q0 45 13 89.5t33.5 84.5t45 72.5t48.5 53.5l107 -83q-35 -59 -48.5 -112t-13.5 -114v-120h-185v129z" />
    <glyph glyph-name="onequarter.ref1" horiz-adv-x="2048" 
d="M1318 299h107v-130h-107v-169h-157v169h-375l-6 102l377 518h161v-490zM938 299h223v289l-17 -28zM458 664h-157v601l-216 -57v128l355 117h18v-789z" />
    <glyph glyph-name="onehalf.ref1" horiz-adv-x="2048" 
d="M1481 0h-599v108l288 271q67 61 94 105t27 77q0 49 -32 79.5t-92 30.5q-75 0 -110.5 -38t-35.5 -95h-157q0 54 20.5 101.5t59 83t94 56.5t125.5 21q67 0 120 -16.5t90 -47.5t56.5 -75t19.5 -98q0 -40 -13.5 -75.5t-38 -70t-60 -69.5t-79.5 -75l-176 -145h399v-128z
M453 664h-157v601l-216 -57v128l355 117h18v-789z" />
    <glyph glyph-name="threequarters.ref1" horiz-adv-x="2048" 
d="M1410 299h107v-130h-107v-169h-157v169h-375l-6 102l377 518h161v-490zM1030 299h223v289l-17 -28zM314 1126h84q74 0 110 30.5t36 78.5q0 45 -31.5 74t-101.5 29q-28 0 -52 -6.5t-42 -18.5t-28 -29t-10 -38h-157q0 51 22 91.5t61 69.5t91.5 44.5t112.5 15.5
q65 0 119 -14.5t92.5 -43t60 -70.5t21.5 -97t-35 -100.5t-101 -70.5q77 -21 113 -68t36 -116q0 -56 -23.5 -99t-64.5 -72t-97 -44.5t-121 -15.5q-56 0 -109.5 13.5t-95.5 42t-67.5 72.5t-25.5 105h158q0 -45 39.5 -75t106.5 -30q70 0 106.5 30t36.5 81q0 62 -43.5 88.5
t-116.5 26.5h-84v116z" />
    <glyph glyph-name="franc.ref1" horiz-adv-x="2048" 
d="M654 266h-636v151h636v-151z" />
    <glyph glyph-name="uni20AB.ref1" horiz-adv-x="2048" 
d="M1196 1234h-636v151h636v-151z" />
    <glyph glyph-name="oneeighth.ref1" horiz-adv-x="2048" 
d="M1439 579q0 -58 -31.5 -102.5t-87.5 -70.5q64 -27 101.5 -75.5t37.5 -114.5q0 -57 -22.5 -99.5t-62.5 -71t-94 -42.5t-117 -14t-117 14t-94 42.5t-62.5 71t-22.5 99.5q0 66 37 114.5t101 75.5q-56 26 -87.5 70.5t-31.5 102.5q0 54 20.5 95t57.5 69t87.5 42.5t110.5 14.5
t111 -14.5t88 -42.5t57.5 -69t20.5 -95zM1302 228q0 52 -39 81t-101 29q-63 0 -100.5 -29t-37.5 -81q0 -53 38 -82t101 -29t101 29t38 82zM1282 570q0 46 -32 73.5t-88 27.5q-55 0 -86.5 -26.5t-31.5 -74.5q0 -46 31.5 -74t87.5 -28t87.5 28t31.5 74zM457 646h-157v601
l-216 -57v128l355 117h18v-789z" />
    <glyph glyph-name="threeeighths.ref1" horiz-adv-x="2048" 
d="M1599 579q0 -58 -31.5 -102.5t-87.5 -70.5q64 -27 101.5 -75.5t37.5 -114.5q0 -57 -22.5 -99.5t-62.5 -71t-94 -42.5t-117 -14t-117 14t-94 42.5t-62.5 71t-22.5 99.5q0 66 37 114.5t101 75.5q-56 26 -87.5 70.5t-31.5 102.5q0 54 20.5 95t57.5 69t87.5 42.5t110.5 14.5
t111 -14.5t88 -42.5t57.5 -69t20.5 -95zM1462 228q0 52 -39 81t-101 29q-63 0 -100.5 -29t-37.5 -81q0 -53 38 -82t101 -29t101 29t38 82zM1442 570q0 46 -32 73.5t-88 27.5q-55 0 -86.5 -26.5t-31.5 -74.5q0 -46 31.5 -74t87.5 -28t87.5 28t31.5 74zM303 1119h84
q74 0 110 30.5t36 78.5q0 45 -31.5 74t-101.5 29q-28 0 -52 -6.5t-42 -18.5t-28 -29t-10 -38h-157q0 51 22 91.5t61 69.5t91.5 44.5t112.5 15.5q65 0 119 -14.5t92.5 -43t60 -70.5t21.5 -97t-35 -100.5t-101 -70.5q77 -21 113 -68t36 -116q0 -56 -23.5 -99t-64.5 -72
t-97 -44.5t-121 -15.5q-56 0 -109.5 13.5t-95.5 42t-67.5 72.5t-25.5 105h158q0 -45 39.5 -75t106.5 -30q70 0 106.5 30t36.5 81q0 62 -43.5 88.5t-116.5 26.5h-84v116z" />
    <glyph glyph-name="fiveeighths.ref1" horiz-adv-x="2048" 
d="M1589 579q0 -58 -31.5 -102.5t-87.5 -70.5q64 -27 101.5 -75.5t37.5 -114.5q0 -57 -22.5 -99.5t-62.5 -71t-94 -42.5t-117 -14t-117 14t-94 42.5t-62.5 71t-22.5 99.5q0 66 37 114.5t101 75.5q-56 26 -87.5 70.5t-31.5 102.5q0 54 20.5 95t57.5 69t87.5 42.5t110.5 14.5
t111 -14.5t88 -42.5t57.5 -69t20.5 -95zM1452 228q0 52 -39 81t-101 29q-63 0 -100.5 -29t-37.5 -81q0 -53 38 -82t101 -29t101 29t38 82zM1432 570q0 46 -32 73.5t-88 27.5q-55 0 -86.5 -26.5t-31.5 -74.5q0 -46 31.5 -74t87.5 -28t87.5 28t31.5 74zM120 1042l50 402h478
v-132h-349l-22 -170q18 8 55.5 18.5t83.5 10.5q128 0 199.5 -68.5t71.5 -189.5q0 -54 -17.5 -103t-54 -85.5t-92 -58.5t-130.5 -22q-56 0 -107.5 15t-92 44t-66 71.5t-28.5 96.5h155q5 -52 42.5 -75.5t96.5 -23.5q36 0 62 11t42.5 30t24.5 45t8 57q0 62 -39 100.5t-113 38.5
q-27 0 -47 -4t-35.5 -10t-27 -13.5t-22.5 -15.5z" />
    <glyph glyph-name="seveneighths.ref1" horiz-adv-x="2048" 
d="M1513 579q0 -58 -31.5 -102.5t-87.5 -70.5q64 -27 101.5 -75.5t37.5 -114.5q0 -57 -22.5 -99.5t-62.5 -71t-94 -42.5t-117 -14t-117 14t-94 42.5t-62.5 71t-22.5 99.5q0 66 37 114.5t101 75.5q-56 26 -87.5 70.5t-31.5 102.5q0 54 20.5 95t57.5 69t87.5 42.5t110.5 14.5
t111 -14.5t88 -42.5t57.5 -69t20.5 -95zM1376 228q0 52 -39 81t-101 29q-63 0 -100.5 -29t-37.5 -81q0 -53 38 -82t101 -29t101 29t38 82zM1356 570q0 46 -32 73.5t-88 27.5q-55 0 -86.5 -26.5t-31.5 -74.5q0 -46 31.5 -74t87.5 -28t87.5 28t31.5 74zM708 1354l-349 -699
h-166l349 659h-453v130h619v-90z" />
    </font>
</defs>
</svg>
